<?xml version="1.0" standalone="no"?>
<!DOCTYPE svg PUBLIC "-//W3C//DTD SVG 1.1//EN" "http://www.w3.org/Graphics/SVG/1.1/DTD/svg11.dtd" >
<svg xmlns="http://www.w3.org/2000/svg">
<defs>
  <font id="lineicons" horiz-adv-x="260">
    <font-face font-family="lineicons"
      units-per-em="256" ascent="256"
      descent="0" />
    <missing-glyph horiz-adv-x="0" />
    <glyph glyph-name="zoom-out"
      unicode="&#xEA02;"
      horiz-adv-x="256" d="M244 52L186.8 109.2C180.4 115.6 169.6 115.6 163.2 109.2L161.6 107.6L150.4 118.8C161.6 132.8 168 150.4 168 168.8C168 190.4 159.6 210.4 144.4 225.6C113.2 256.8 62 256.8 30.8 225.6C15.6 210.4 7.2 190.4 7.2 168.8C7.2 147.2 15.6 127.2 30.8 112C46.4 96.4 67.2000000000001 88.4 87.6 88.4C105.2000000000001 88.4 123.2000000000001 94.4 137.6 106L148.8 94.8L147.2 93.2C144 90 142.4 86 142.4 81.2C142.4 76.8 144 72.4 147.2 69.2L204.4 12C207.6 8.8 212 7.2 216.4 7.2S224.8 8.8 228.4 12L244.4 28C247.6 31.2 249.2 35.2 249.2 40C249.2 44.4 247.2 48.8 244.0000000000001 52zM43.2 124.4C31.6 136 24.8 151.6 24.8 168.4S31.2 200.8 43.2 212.4C55.2 224.4 71.2 230.8 87.2 230.8S119.2 224.8 131.2 212.4C142.8 200.8 149.6 185.2 149.6 168.4S143.2 136 131.2 124.4C107.2 100.4 67.6 100.4 43.2 124.4zM216 25.6L160.4 81.2L174.8 95.6L230.4 40L216 25.6zM107.6 177.6H66.8C62 177.6 57.6 173.6 57.6 168.4S61.6 159.2 66.8 159.2H107.6C112.4 159.2 116.8 163.2 116.8 168.4S112.8 177.6 107.6 177.6z" />
    <glyph glyph-name="zoom-in"
      unicode="&#xEA03;"
      horiz-adv-x="256" d="M244 51.6L186.8 109.2C183.6 112.4 179.6 114 174.8 114C170.4 114 166 112.4 162.8 109.2L161.2 107.6L150 118.8C175.2 150.4 173.2 196.8 144 226C128.8000000000001 241.2 108.8 249.6 87.2 249.6C65.6 249.6 45.6 241.2 30.4 226C-0.8 194.8 -0.8 143.6 30.4 112.4C45.6 97.2 65.6 88.8 87.2 88.8C105.6 88.8 123.2 95.2 137.2000000000001 106.4L148.4 95.2L146.8000000000001 93.6C140.4 87.2 140.4 76.4 146.8000000000001 70L204.4 12.4C207.6 9.2 211.6 7.6 216.4 7.6C220.8000000000001 7.6 225.2000000000001 9.2 228.4000000000001 12.4L244.4000000000001 28.4C250.8000000000001 34.4 250.8000000000001 45.2 244.0000000000001 51.6zM87.2 106.4C70.4 106.4 54.8 112.8 43.2 124.8C18.8 149.2 18.8 188.8 43.2 213.2C54.8 224.8 70.8 231.6 87.2 231.6C104 231.6 119.6 225.2 131.2 213.2C155.6 188.8 155.6 149.2 131.2 124.8C119.6 112.8 104 106.4 87.2 106.4zM216 25.2L160.4 81.2L174.8 95.6L230.4 40L216 25.2zM107.6 177.6H96.4V188.8C96.4 193.6 92.4 198 87.2 198S78 194 78 188.8V177.6H66.8C62 177.6 57.6 173.6 57.6 168.4S61.6 159.2 66.8 159.2H78V148C78 143.2 82 138.8 87.2 138.8S96.4 142.8 96.4 148V159.2H107.6C112.4 159.2 116.8 163.2 116.8 168.4S112.8 177.6 107.6 177.6z" />
    <glyph glyph-name="zip"
      unicode="&#xEA04;"
      horiz-adv-x="256" d="M225.2 209.6H211.6V218.4C211.6 235.2 198 248.8 181.2 248.8H43.2C26.4 248.8 12.8 235.2 12.8 218.4V95.6C12.8 90 15.2 84.8 19.2 81.2L92 12.4C95.6 8.8 100.4 7.2 105.6 7.2H180.8C197.6 7.2 211.2 20.8 211.2 37.6V118H224.8C230.4 118 234.8 122.4 234.8 128V199.2C235.2 204.8 230.8 209.6 225.2 209.6zM41.2 84.8H92C92.8 84.8 93.6 84 93.6 83.2V35.6L41.2 84.8zM193.6 37.6C193.6 30.8 188 25.2 181.2 25.2H112V83.2C112 94 103.2 102.8 92.4 102.8H30.4V218.4C30.4 225.2 36 230.8 42.8 230.8H180.8C187.6 230.8 193.2 225.2 193.2 218.4V209.2H72.4C66.8 209.2 62.4 204.8 62.4 199.2V128C62.4 122.4 66.8 118 72.4 118H193.6V37.6zM153.6 178.8V148.4C153.6 142.8 149.2 138.4 143.6 138.4S133.6 142.8 133.6 148.4V178.8C133.6 184.4 138 188.8 143.6 188.8S153.6 184.4 153.6 178.8zM123.2 148.4C123.2 142.8 118.8 138.4 113.2 138.4H96C92.4 138.4 88.8 140.4 87.2 143.6C85.6 146.8 85.6 150.8 87.6 154L96.8 169.2H93.2C87.6 169.2 83.2 173.6 83.2 179.2S87.6 189.2 93.2 189.2H115.2C118.8 189.2 122.4 187.2 124 184C125.6 180.8 125.6 176.8 123.6 173.6L114.4 158.4C119.2 158 123.2 153.6 123.2 148.4zM194.4 148.4H184.4C184.4 142.8 180 138.4 174.4 138.4S164 142.8 164 148.4V178.8C164 184.4 168.4 188.8 174 188.8H194.4C205.6 188.8 214.8 179.6 214.8 168.4C214.8 157.6 205.6 148.4 194.4 148.4z" />
    <glyph glyph-name="website"
      unicode="&#xEA05;"
      horiz-adv-x="256" d="M188 150.8L190 155.2L192 150.8C193.6 147.2 197.2 145.2 201.2 145.2S208.4 147.2 210.4 150.8L220.4 171.2C222.8 175.6 220.8 181.2 216.4 183.2S206.4 183.6 204.4 179.2L201.2 173.2L199.2 177.6C197.6 181.2 194 183.2 190 183.2C186 183.2 182.8 181.2 180.8 177.6L178.8 173.2L176 179.6C173.6 184 168.4 186 164 183.6C161.6 182.4 160 180 159.2 177.6C158.8 180 156.8 182.4 154.4 183.6C150 186 144.4 184 142.4 179.6L139.2 173.6L137.2 178C135.6 181.6 132 183.6 128 183.6C124 183.6 120.8 181.6 118.8 178L116.8 173.6L113.6 179.6C111.2 184 106 186 101.6 183.6C99.2 182.4 97.6 180 96.8 177.6C96.4 180 94.4 182.4 92 183.6C87.6 186 82 184 80 179.6L76.8 173.6L74.8 178C73.2 181.6 69.6 183.6 65.6 183.6S58.4 181.6 56.4 178L54.4 173.6L51.2 179.6C48.8 184 43.6 186 39.2 183.6C34.8 181.2 32.8 176 35.2 171.6L45.2 151.2C46.8 147.6 50.4 145.6 54.4 145.6C58.4 145.6 61.6 147.6 63.6 151.2L65.6 155.6L67.6 151.2C69.2 147.6 72.8 145.6 76.8 145.6C80.8 145.6 84 147.6 86 151.2L96 171.6C96.4 172.4 96.4 172.8 96.8 173.6C96.8 172.8 97.2 172.4 97.6 171.6L107.6 151.2C109.2 147.6 112.8 145.6 116.8 145.6C120.8 145.6 124 147.6 126 151.2L128 155.6L130 151.2C131.6 147.6 135.2 145.6 139.2 145.6C143.2 145.6 146.4 147.6 148.4 151.2L158.4 171.6C158.8 172.4 158.8 172.8 159.2 173.6C159.2 172.8 159.6 172.4 160 171.6L170 151.2C171.6 147.6 175.2 145.6 179.2 145.6C182.8 145.2 186.4 147.6 188 150.8zM233.6 226.8H22.4C11.6 226.8 3.2 218 3.2 207.2V122.4C3.2 111.6 12 102.8 22.4 102.8H149.2C154 102.8 158.4 106.8 158.4 112S154.4 121.2 149.2 121.2H22.4C21.6 121.2 21.2 122 21.2 122.8V207.2C21.2 208 21.6 208.8 22.4 208.8H234C234.8 208.8 235.2 208 235.2 207.2V122.4C235.2 121.6 234.4 120.8 233.6 120.8C228.8 120.8 224.4 116.8 224.4 111.6S228.4 102.4 233.6 102.4C244.4 102.4 253.2 111.2000000000001 253.2 122V207.2C253.2 218 244.4 226.8 233.6 226.8zM245.2 80.4L188.8 108.8C184 111.2 178.4 110.4 175.2 106.8C171.6 103.2 170.8 97.6 173.2 92.8L201.6 36.4C204 32 208.4 28.8 213.6 28.8H214C218.4 28.8 222.4 31.6 224 35.6L230.8 51.2L246.4 58C250.4 59.6 252.8 63.6 253.2 68C252.8 73.6 250.0000000000001 78.4 245.2 80.4zM216.8 65.2L212.4 55.2L197.6 84.4L226.8 69.6L216.8 65.2z" />
    <glyph glyph-name="website-alt"
      unicode="&#xEA06;"
      horiz-adv-x="256" d="M78.4 146C74.4 148.8 68.8 147.6 66 143.6L58 132L51.6 141.6C49.6 144.4 46.4 146 42.8 146C39.2 146 36 144.4 34 141.6L27.2 132L19.2 143.6C16.4 147.6 10.8 148.8 6.8 146C2.8 143.2 1.6 137.6 4.4 133.6L18.4 112.8C20.4 110 23.6 108.4 27.2 108.4C30.8 108.4 34 110 36 112.8L42.4 122.4L48.8 112.8C50.8 110 54 108.4 57.6 108.4S64.4 110 66.4 112.8L80.4 133.6C83.6 137.6 82.4 143.2 78.4 146zM163.6 146C159.6 148.8 154 147.6 151.2 143.6L143.2 132L136.8 141.6C134.8 144.4 131.6 146 128 146C124.4 146 121.2 144.4 119.2 141.6L112.8 132L104.8 143.6C102 147.6 96.4 148.8 92.4 146C88.4 143.2 87.2 137.6 90 133.6L104 112.8C106 110 109.2 108.4 112.8 108.4C116.4 108.4 119.6 110 121.6 112.8L128 122.4L134.4 112.8C136.4 110 139.6 108.4 143.2 108.4C146.8 108.4 150 110 152 112.8L166 133.6C168.8 137.6 168 143.2 163.6 146zM249.2 146C245.2 148.8 239.6 147.6 236.8 143.6L228.8 132L222.4 141.6C220.4 144.4 217.2 146 213.6 146C210 146 206.8 144.4 204.8 141.6L198 132L190 143.6C187.2 147.6 181.6 148.8 177.6 146C173.6 143.2 172.4 137.6 175.2 133.6L189.2 112.8C191.2 110 194.4 108.4 198 108.4C201.6 108.4 204.8 110 206.8 112.8L213.2 122.4L219.6 112.8C221.6 110 224.8 108.4 228.4000000000001 108.4C232.0000000000001 108.4 235.2000000000001 110 237.2000000000001 112.8L251.2000000000001 133.6C254.4000000000001 137.6 253.2000000000001 143.2 249.2000000000001 146z" />
    <glyph glyph-name="users"
      unicode="&#xEA07;"
      horiz-adv-x="256" d="M87.2 108.8C114.8 108.8 136.8 131.2 136.8 158.4S114.4 208 87.2 208S37.6 186 37.6 158.4S60 108.8 87.2 108.8zM87.2 190.4C104.8 190.4 118.8 176 118.8 158.8S104.4 127.2 87.2 127.2C69.6 127.2 55.6 141.6 55.6 158.8S69.6 190.4 87.2 190.4zM87.2 96.4C58.4 96.4 30.8 84.8 9.6 63.2C6 59.6 6 54 9.6 50.4C11.2 48.8 13.6 47.6 16 47.6C18.4 47.6 20.8 48.4 22.4 50.4C40 68.4 63.2 78.4 87.2 78.4C110.8 78.4 134 68.4 152 50.4C155.6 46.8 161.2 46.8 164.8 50.4C168.4 54 168.4 59.6 164.8 63.2C143.6 84.4 116 96.4 87.2 96.4zM189.2 108.8C205.2 108.8 218.4 122 218.4 138S205.2 167.2 189.2 167.2S160 154 160 138C159.6 122 172.8 108.8 189.2 108.8zM189.2 149.6C195.6 149.6 200.4 144.4 200.4 138.4C200.4 132 195.2 127.2 189.2 127.2S178 132.4 178 138.4C177.6 144.4 182.8 149.6 189.2 149.6zM246 73.6C224.8 93.2 195.6 101.2 166.4 93.6C161.6 92.4 158.8 87.6 160 82.8C161.2 78 166.4 75.2 170.8 76.4C194 82.4 217.2 76.4 233.6 60.8C235.2 59.2 237.6 58.4 239.6 58.4C242.0000000000001 58.4 244.4000000000001 59.2 246.0000000000001 61.2C250.0000000000001 64.4 249.6 70 246.0000000000001 73.6z" />
    <glyph glyph-name="user"
      unicode="&#xEA08;"
      horiz-adv-x="256" d="M128 108.8C161.2 108.8 188 135.6 188 168.8S161.2 228.8 128 228.8S68 202 68 168.8S94.8 108.8 128 108.8zM128 210.8C151.2 210.8 170 192 170 168.8S151.2 126.8 128 126.8S86 145.6 86 168.8S104.8 210.8 128 210.8zM246 43.2C213.2 70.8 171.6 86 128 86S42.8 70.8 10 43.2C6.4 40 5.6 34.4 8.8 30.4C12 26.8 17.6 26 21.6 29.2C51.2 54.4 88.8 68 128 68S204.8 54.4 234 29.6C235.6 28 237.6 27.6 240 27.6S245.2 28.8 246.8 30.8C250 34.4 249.6 40 246 43.2z" />
    <glyph glyph-name="upload"
      unicode="&#xEA09;"
      horiz-adv-x="256" d="M240 80C235.2 80 230.8 76 230.8 70.8V35.2C230.8 31.6 228 28.8 224.4 28.8H31.6C28 28.8 25.2 31.6 25.2 35.2V70.8C25.2 76 20.8 80 16 80S6.8 76 6.8 70.8V35.2C6.8 21.6 17.6 10.8 31.2 10.8H224.4C238 10.8 248.8 21.6 248.8 35.2V70.8C249.2 76 244.8 80 240 80zM76.4 173.2L119.2 214.8V76.4C119.2 71.6 123.2 67.2 128.4 67.2C133.2 67.2 137.6 71.2 137.6 76.4V214.8L180.4 173.2C182 171.6 184.4 170.8 186.8 170.8C189.2 170.8 191.6 171.6 193.2 173.6C196.8 177.2 196.4 182.8 193.2 186.4L134.4 242.4C130.8 245.6 125.2 245.6 122 242.4L63.6 186C60 182.4 60 176.8 63.6 173.2C67.2 170 72.8 169.6 76.4 173.2z" />
    <glyph glyph-name="unlink"
      unicode="&#xEA0A;"
      horiz-adv-x="256" d="M118.8 203.2L86.4 235.6C68.4 253.6 38.8 253.6 20.4 235.6C12 226.4 7.2 214.8 7.2 202.4C7.2 190 12 178.4 20.8 169.6L52.8 137.2C62 128 74 123.6 85.6 123.6C97.6 123.6 109.6 128 118.4 137.2C127.2 146 132 157.6 132 170C132.4 182.4 127.6 194 118.8 203.2zM65.6 150L33.6 182.4C28 188 25.2 195.2 25.2 202.8C25.2 210.4 28 217.6 33.6 223.2C39.2 228.8 46.4 231.6 54 231.6C61.2 231.6 68.8 228.8 74.4 223.2L106.8 191.2C112 185.6 115.2 178.4 115.2 170.8C115.2 166 114 161.2 111.6 156.8L101.6 166.8C98 170.4 92.4 170.4 88.8 166.8C85.2 163.2 85.2 157.6 88.8 154L98 144.8C86.8 139.2 74 141.2 65.6 150zM235.6 86.8L203.2 119.2C185.2 137.2 155.2 137.2 137.2 119.2C128.4 110.4 123.6 98.8 123.6 86.4S128.4 62.4 137.2 53.6L169.2 21.2C178.4 12 190.4 7.6 202 7.6C214 7.6 226 12 234.8 21.2C243.6 30 248.4 41.6 248.4 54C249.2 66 244.4 77.6 235.6 86.8zM222.4 33.6C211.2 22.4 192.8 22.4 182 33.6L150 66C144.4 71.6 141.6 78.8 141.6 86.4C141.6 90.4 142.4 94.4 144 98L152.8 88.8C154.4 87.2000000000001 156.8 86 159.2 86C161.6 86 163.6 86.8 165.6 88.4C169.2 92 169.2 97.6 165.6 101.2000000000001L156 110.8C160.4 113.2 165.2 114.4 170 114.4C177.2 114.4 184.8 111.6 190.4 106L222.8 74C228 68.4 231.2 61.2 231.2 53.6C230.8 46 228.0000000000001 38.8 222.4 33.6zM158.8 190.4C163.6 190.4 168 194.4 168 199.6V230C168 234.8 164 239.2 158.8 239.2S149.6 235.2 149.6 230V199.2C149.6 194.4 153.6 190.4 158.8 190.4zM190.4 158.4C190.4 153.6 194.4 149.2 199.6 149.2H230C234.8 149.2 239.2 153.2 239.2 158.4S235.2 167.6 230 167.6H199.6C194.4 167.6 190.4 163.6 190.4 158.4zM167.2 173.6C168.8 172 171.2 170.8 173.6 170.8C176 170.8 178.4 171.6 180 173.6L206 200C209.6 203.6 209.6 209.2 206 212.8C202.4 216.4 196.8 216.4 193.2 212.8L167.2 186.4C163.6 182.8 163.6 177.2 167.2 173.6zM97.6 65.6C92.8 65.6 88.4 61.6 88.4 56.4V25.6C88.4 20.8 92.4 16.4 97.6 16.4S106.8 20.4 106.8 25.6V56.4C106.4 61.6 102.4 65.6 97.6 65.6zM55.6 97.2C55.6 102 51.6 106.4 46.4 106.4H26C21.2 106.4 16.8 102.4 16.8 97.2S20.8 88 26 88H46.4C51.6 88.4 55.6 92.4 55.6 97.2zM67.6 86.8L41.6 60.8C38 57.2 38 51.6 41.6 48C43.2 46.4 45.6 45.2 48 45.2C50.4 45.2 52.8 46 54.4 48L80.4 74C84 77.6 84 83.2 80.4 86.8C76.8 90.4 70.8 90.4 67.6 86.8z" />
    <glyph glyph-name="trash-can"
      unicode="&#xEA0B;"
      horiz-adv-x="256" d="M195.6 220.8H164.8V227.6C164.8 239.6 155.2 249.2 143.2 249.2H112.4C100.4 249.2 90.8 239.6 90.8 227.6V220.8H60C48.4 220.8 38.8 211.2 38.8 199.6V187.6C38.8 178.8 44 171.6 51.6 168.4L58 30C58.8 16.8 69.2 6.8 82.4 6.8H172.4C185.6 6.8 196.4 17.2 196.8 30L204 168.8C211.6 172 216.8 179.6 216.8 188V200C216.8 211.2 207.2 220.8 195.6 220.8zM109.2 227.6C109.2 229.6 110.8 231.2 112.8 231.2H143.6C145.6 231.2 147.2 229.6 147.2 227.6V220.8H109.6V227.6zM57.2 199.6C57.2 201.2 58.4 202.8 60.4 202.8H195.6C197.2 202.8 198.8 201.6 198.8 199.6V187.6C198.8 186 197.6 184.4 195.6 184.4H60.4C58.8 184.4 57.2 185.6 57.2 187.6V199.6zM172.8 24.8H83.2C79.6 24.8 76.8 27.6 76.8 30.8L70.4 166.4H186L179.6 30.8C179.2 27.6 176.4 24.8 172.8 24.8zM128 126.4C123.2 126.4 118.8 122.4 118.8 117.2V66.4C118.8 61.6 122.8 57.2000000000001 128 57.2000000000001C132.8 57.2000000000001 137.2 61.2000000000001 137.2 66.4V117.2C137.2 122.4 132.8 126.4 128 126.4zM160 118.4C154.8 118.8 150.8 115.2 150.4 110L148 74.8C147.6 70 151.2 65.6 156.4 65.2H157.2C162 65.2 166 68.8 166 73.6L168.4 108.8C168.4 114 164.8000000000001 118 160 118.4zM95.6 118.4C90.8 118 86.8 113.6 87.2 108.8L90 73.6C90.4 68.8 94.4 65.2 98.8 65.2H99.6C104.4 65.6 108.4 70 108 74.8L105.2 110C105.2 115.2 100.8 118.8 95.6 118.4z" />
    <glyph glyph-name="timer"
      unicode="&#xEA0C;"
      horiz-adv-x="256" d="M137.2 208V230.8H158.8C163.6 230.8 168 234.8 168 240S164 249.2 158.8 249.2H97.6C92.8 249.2 88.4 245.2 88.4 240S92.4 230.8 97.6 230.8H119.2V208C67.6 203.2 27.2 160 27.2 107.6C27.2 52 72.4 6.8 128 6.8S228.8 52 228.8 107.6C228.8 160 188.4 203.2 137.2 208zM128 24.8C82.4 24.8 45.2 62 45.2 107.6S82.4 190.4 128 190.4S210.8 153.2 210.8 107.6S173.6 24.8 128 24.8zM178.8 116.8H137.2V158.4C137.2 163.2 133.2 167.6 128 167.6C123.2 167.6 118.8 163.6 118.8 158.4V116.4H107.6C102.8 116.4 98.4 112.4 98.4 107.2S102.4 98 107.6 98H118.8V86.8C118.8 82 122.8 77.6000000000001 128 77.6000000000001C132.8 77.6000000000001 137.2 81.6000000000001 137.2 86.8V98H179.2C184 98 188.4 102 188.4 107.2S184 116.8 178.8 116.8z" />
    <glyph glyph-name="tab"
      unicode="&#xEA0D;"
      horiz-adv-x="256" d="M194.4 248.8H61.6C48 248.8 37.2 238 37.2 224.4V31.2C37.2 17.6 48 6.8 61.6 6.8H194C207.6 6.8 218.4 17.6 218.4 31.2V224.4C218.8 238 207.6 248.8 194.4 248.8zM200.8 31.6C200.8 28 198 25.2 194.4 25.2H61.6C58 25.2 55.2 28 55.2 31.6V224.4C55.2 228 58 230.8 61.6 230.8H194C197.6 230.8 200.4 228 200.4 224.4V31.6zM132 215.6H101.2C96.4 215.6 92 211.6 92 206.4S96 197.2 101.2 197.2H132C136.8 197.2 141.2 201.2 141.2 206.4S136.8 215.6 132 215.6zM157.6 215.6H152.4C147.6 215.6 143.2 211.6 143.2 206.4S147.2 197.2 152.4 197.2H157.6C162.4 197.2 166.8 201.2 166.8 206.4S162.8 215.6 157.6 215.6zM128 60.8C123.2 60.8 118.8 56.8 118.8 51.6C118.8 46.8 122.8 42.4 128 42.4S137.2 46.4 137.2 51.6C137.2 56.8 132.8 60.8 128 60.8z" />
    <glyph glyph-name="star-half"
      unicode="&#xEA0E;"
      horiz-adv-x="256" d="M180.8 146.4C185.6 146.4 189.6 150.4 189.6 155.2C189.6 160 186 164.4 180.8 164.4L163.6 165.2L157.6 180.4C156 185.2 150.8 187.2 146 185.6C141.2 184 139.2 178.4 140.8000000000001 174L148.8000000000001 153.2C150 150 153.2000000000001 147.6 156.8000000000001 147.6L180.8000000000001 146.4C180.4 146.4 180.8000000000001 146.4 180.8000000000001 146.4zM248.4 154.8C247.2 159.2 243.2 162 238.8 162L215.2 162.8C210.4 163.2 206 159.2 206 154C206 149.2 209.6 144.8 214.8000000000001 144.8H217.6000000000001L205.6000000000001 135.6C201.6000000000001 132.8 200.8000000000001 126.8 204.0000000000001 122.8C205.6000000000001 120.4 208.4000000000001 119.2 211.2000000000001 119.2C213.2000000000001 119.2 214.8000000000001 119.6 216.8000000000001 121.2L245.6000000000001 142.8C248.4000000000001 146 250.0000000000001 150.8 248.4000000000001 154.8zM184.4 120.4L170.4 110C167.6 107.6 166 104 167.2 100.4L172 83.6C173.2 79.6 176.8000000000001 77.2 180.8000000000001 77.2C181.6000000000001 77.2 182.4 77.2 183.2000000000001 77.6C188.0000000000001 79.2 190.8000000000001 84 189.2000000000001 88.8L186.0000000000001 99.6L195.2000000000001 106.4C199.2000000000001 109.2 200.0000000000001 115.2 196.8000000000001 119.2C194 122.4 188.4 123.2 184.4 120.4zM200 52.4C198.8 57.2 193.6 60 188.8 58.4C184 56.8 181.2 52 182.8 47.2L183.6 44.4L172.4 52C168.4 54.8 162.8000000000001 53.6 160 49.2C157.2 45.2 158.4 39.6 162.8000000000001 36.8L190.8000000000001 18.8C192.4 17.6 194.4 17.2 196.4 17.2C198.8000000000001 17.2 200.8000000000001 18 202.8000000000001 19.2C206.4 22 208 26.4 206.4 30.4L200 52.4zM152 64.8L132.8 77.2H132.4C132 77.6 131.2 78 130.4 78H130C129.2 78 128.4 78.4 127.6 78.4H127.2C126.4 78.4 126 78.4 125.2 78H124.8C124 77.6 123.2 77.6 122.8 77.2L72 44.8L88.8 100C90 103.6 88.4 107.6 85.6 109.6L38.8 144.8L98.8 147.2C102.4 147.2 105.6 149.6 106.8 152.8L128 207.6L130 202C131.2 198.4 134.8 196.4 138.4 196.4C139.6 196.4 140.4 196.4 141.6 197.2C146.4 198.8 148.4 204.4 146.8 208.8L138 232C136.4 236 132.4 238.8 128 238.8S119.6 236 118 232L92 164.8L17.2 162C12.8 162 8.8 158.8 7.6 154.8C6.4 150.8 7.6 146 11.2 143.2L70 98.8L50 30.4C48.8 26 50.4 21.6 53.6 19.2C55.6 17.6 57.6 17.2 60 17.2C62 17.2 64 17.6 65.6 18.8L128 58.8L142.4 49.6C144 48.8 145.6 48 147.2 48C150 48 153.2 49.6 154.8 52C157.6 56.4 156.4 62 152 64.8z" />
    <glyph glyph-name="star-fill"
      unicode="&#xEA0F;"
      horiz-adv-x="256" d="M238.8 160.4L166.4 171.6L133.6 240.4C131.2 245.2 124.8 245.2 122.4 240.4L89.6 171.2L17.6 160.4C12.4 159.6 10.4 152.8 14.4 149.2L66.8 95.2L54.4 19.6C53.6 14.4 58.8 10 63.6 13.2L128.8 48.8L193.6 13.2C198 10.8 203.6 14.8 202.4 19.6L190 95.2L242.4000000000001 149.2C245.6 152.8 244.0000000000001 159.6 238.8000000000001 160.4z" />
    <glyph glyph-name="star-empty"
      unicode="&#xEA10;"
      horiz-adv-x="256" d="M128 222L141.608 228.4L136.008 238.8C134.408 242 131.208 244 128.008 244S121.608 242 120.008 239.2L114.408 228.8L128 222zM150.148 211.848L134.048 203.808L146.38 179.112L162.484 187.16L150.148 211.848zM156 160.4C157.2 157.6 160 156 162.8 155.6L174.8 154L177.2 172L170 172.8L166.8000000000001 179.2L150.8000000000001 170.8L156 160.4zM195.92 169.112L193.408 151.288L221.528 147.32L224.044 165.144L195.924 169.112zM252.4 155.6C251.2 158.8 248.4 161.2 245.2 162L233.2 164L232.0000000000001 148L241.6 138.4L250.4000000000001 146.4C252.8000000000001 148.8 253.6 152.4 252.4000000000001 155.6zM215.736 138.66L195.656 119.728L208.004 106.628L228.084 125.564L215.736 138.66zM195.6 95.2L200.8 100.4L188.4 113.2L180 104.8C178 102.8 176.8 99.6 177.2 96.8L179.2 85.2L196.8 88L195.6 95.2zM200.224 70.208L182.516 66.984L187.46 39.832L205.168 43.056L200.224 70.208zM206.408 34.4L188 32L184.408 18.8L195.208 13.2C196.408 12.4 198.008 12.4 199.208 12.4C201.208 12.4 203.208 13.2 204.408 14C207.208 16 208.408 19.6 208.008 22.8L206.408 34.4zM151.36 55.96L143.172 39.928L168.104 27.188L176.296 43.22L151.364 55.96zM124 65.6L113.2 60L121.6 44L128 47.6L134.8 44L142.8 60L132 65.6C129.6 66.8 126.4 66.8 124 65.6zM96.392 51.672L71.408 39.04L79.528 22.976L104.516 35.608L96.396 51.672zM64 32L49.2 34L47.2 22.4C46.8 19.2 48 15.6 50.8 13.6C52.4 12.4 54.4 12 56 12S58.8 12.4 60 13.2L70.8 18.8L64 32zM57.496 79.192L52.892 52.384L70.632 49.336L75.236 76.144L57.496 79.192zM78.8 96.8C79.2 99.6 78.4 102.8 76.4 104.8L67.6 113.2L55.2 100.4L60.4 95.2L59.2 88.4L76.8 85.2L78.8 96.8zM33.928 145.136L21.58 132.04L41.66 113.104L54.008 126.204L33.928 145.136zM25.208 149.2L22.808 164L10.408 162C6.808 161.6 4.008 159.2 3.208 155.6C2.408 152 3.208 148.8 5.608 146.4L14.808 138.4L25.208 149.2zM69.36 170.692L41.64 166.744L44.18 148.92L71.9 152.872L69.36 170.692zM86.4 172.8L78.8 172L81.2 154L93.6 155.6C96.4 156 99.2 157.6 100.4 160.4L106 170.8L90 179.2L86.4 172.8zM110.424 220.192L97.876 195.608L113.908 187.424L126.456 212.008L110.424 220.192z" />
    <glyph glyph-name="signal"
      unicode="&#xEA11;"
      horiz-adv-x="256" d="M128 166.4C115.2 166.4 104.8 156 104.8 143.2C104.8 133.6 110.8 125.2 119.2 121.6V43.2C119.2 38.4 123.2 34 128.4 34C133.2 34 137.6 38 137.6 43.2V122C146 125.6 152 133.6 152 143.6C151.2 156 140.8 166.4 128 166.4zM128 148.4C130.8 148.4 133.2 146 133.2 143.2C133.2 140.4 130.8 138 128 138S122.8 140.4 122.8 143.2C122.8 146 125.2 148.4 128 148.4zM88.4 146C88.4 153.6 91.6 160.8 96.8 166C100.4 169.6 100.4 175.2 96.8 178.8C93.2 182.4 87.6 182.4 84 178.8C75.2 170 70.4 158.4 70.4 146C70.4 133.6 75.2 121.6 84 112.8C85.6 111.2 88 110 90.4 110C92.8 110 94.8 110.8 96.8 112.8C100.4 116.4 100.4 122 96.8 125.6C91.6 131.2 88.4 138.4 88.4 146zM171.6 178.8C168 182.4 162.4 182.4 158.8 178.8C155.2 175.2 155.2 169.6 158.8 166C164.4 160.8 167.2 153.6 167.2 146S164.4 131.2 158.8 125.6C155.2 122 155.2 116.4 158.8 112.8C160.4 111.2 162.8 110 165.2 110C167.6 110 170 110.8 171.6 112.8C180.4 121.6 185.2 133.6 185.2 146C185.2 158.4 180.4 170 171.6 178.8zM54.8 146C54.8 161.2 60.8 175.2 71.6 186C75.2 189.6 75.2 195.2 71.6 198.8C68 202.4 62.4 202.4 58.8 198.8C44.4 184.8 36.8 166 36.8 146S44.8 107.2 58.8 93.2C60.4 91.6 62.8 90.4 65.2 90.4C67.6 90.4 70 91.2 71.6 93.2C75.2 96.8 75.2 102.4 71.6 106C60.8 116.8 54.8 130.8 54.8 146zM197.2 198.8C193.6 202.4 188 202.4 184.4 198.8C180.8 195.2 180.8 189.6 184.4 186C195.2 175.2 201.2 161.2 201.2 146S195.2 116.8 184.4 106C180.8 102.4 180.8 96.8 184.4 93.2C186 91.6 188.4 90.4 190.8 90.4C193.2 90.4 195.2 91.2 197.2 93.2C211.6 107.2 219.2 126 219.2 146S211.2 184.8 197.2 198.8zM21.2 146C21.2 168.8 30 190 46.4 206C50 209.6 50 215.2 46.4 218.8C42.8 222.4 37.2 222.4 33.6 218.8C14 199.2 3.2 173.6 3.2 146C3.2 118.4 14 92.8 33.6 73.2C35.2 71.6 37.6 70.4 40 70.4C42.4 70.4 44.8 71.2 46.4 73.2C50 76.8 50 82.4 46.4 86C30 102 21.2 123.2 21.2 146zM222.4 218.8C218.8 222.4 213.2 222.4 209.6 218.8C206 215.2 206 209.6 209.6 206C226 190 234.8 168.8 234.8 146C234.8 123.2 226 102 209.6 86C206 82.4 206 76.8 209.6 73.2C211.2 71.6 213.6 70.4 216 70.4C218.4 70.4 220.4 71.2 222.4 73.2C242 92.8 252.8 118.4 252.8 146C253.2 173.6 242 199.2 222.4 218.8z" />
    <glyph glyph-name="shortcode"
      unicode="&#xEA12;"
      horiz-adv-x="256" d="M123.2 157.6H153.6C158.4 157.6 162.8 161.6 162.8 166.8S158.8 176 153.6 176H123.2C109.2 176 97.6 164.4 97.6 150.4V144C97.6 130 109.2 118.4 123.2 118.4H137.2C141.2 118.4 144.8 115.2 144.8 110.8V104C144.8 100 141.6 96.4 137.2 96.4H108.8C104 96.4 99.6 92.4 99.6 87.2S103.6 78 108.8 78H137.2C151.2 78 162.8 89.6 162.8 103.6V110C162.8 124 151.6 135.6 137.2 135.6H123.2C119.2 135.6 115.6 138.8 115.6 143.2V149.6C116 154 119.2 157.6 123.2 157.6zM69.6 174C66.4 178 60.8 178.4 56.8 175.2L11.6 138.4C8.8 136 6.8 132.4 6.8 128.4S8.4 121.2 11.6 118.8L57.2 82C58.8 80.8 60.8 80 62.8 80C65.6 80 68 81.2 69.6 83.2C72.8 87.2 72 92.8 68.4 96L28 128.8L68.4 161.6C72.4 164.4 72.8 170.4 69.6 174zM244.4 138.4L198.8 175.2C194.8 178.4 189.2 177.6 186 174C182.8 170 183.6 164.4 187.2 161.2L227.6 128.8L187.2 96C183.2 92.8 182.8 87.2 186 83.2C187.6 80.8 190.4 80 193.2 80C195.2 80 197.2 80.8 198.8 82L244.4 118.8C247.6 121.2 249.2 124.8 249.2 128.8S247.2 136 244.4 138.4z" />
    <glyph glyph-name="shopping-basket"
      unicode="&#xEA13;"
      horiz-adv-x="256" d="M225.6 177.6H216L190 243.2C188 248 182.8 250 178.4 248.4C173.6 246.4 171.6 241.2 173.2 236.8L196.4 177.6H59.6L82.8 236.4C84.8 241.2 82.4 246.4 77.6 248C73.2 250 68 248 66 243.2L40 177.6H30.4C23.2 177.6 17.2 171.6 17.2 164.4V132C17.2 125.2 22 120 28.8 119.2L38.8 32C40.4 17.6 52.4 6.8 66.8 6.8H189.2C203.6 6.8 215.6 17.6 217.2 32L227.2 119.2C233.6 120 238.8 125.6 238.8 132V164.8C238.8 172 232.8 177.6 225.6 177.6zM35.2 159.6H220.8V136.8H35.2V159.6zM189.2 24.8H66.8C61.6 24.8 57.2 28.8 56.4 34L46.8 118.8H209.2L199.6 33.9999999999999C198.8 28.8 194.4 24.8 189.2 24.8zM87.2 100.8C82.4 100.8 78 96.8 78 91.6V61.6C78 56.8 82 52.4 87.2 52.4S96.4 56.4 96.4 61.6V92C96.4 96.8 92.4 100.8 87.2 100.8zM168.8 100.8C164 100.8 159.6 96.8 159.6 91.6V61.6C159.6 56.8 163.6 52.4 168.8 52.4S178 56.4 178 61.6V92C177.6 96.8 173.6 100.8 168.8 100.8z" />
    <glyph glyph-name="share"
      unicode="&#xEA14;"
      horiz-adv-x="256" d="M118 85.6C122.8 85.6 127.2 89.6 127.2 94.8V154.8C127.2 176.4 144.8 194 166.4 194H214L190.8 172C187.2 168.4 187.2 162.8 190.4 159.2C192 157.2 194.4 156.4 196.8 156.4C199.2 156.4 201.2 157.2 202.8 158.8L239.6 193.6C242.0000000000001 196 243.6 199.6 243.6 203.2C243.6 206.8 242.0000000000001 210 239.6 212.4L202.8 246.4C199.2 249.6 193.6 249.6 190 246C186.8 242.4 186.8 236.8 190.4 233.2L213.6 211.6H165.6C134 211.6 108.4 186 108.4 154.4V94.4C109.2 89.6 113.2 85.6 118 85.6zM236 103.6C231.2 103.6 226.8 99.6 226.8 94.4V36.4C226.8 30 221.6 24.8 215.2 24.8H40.8C34.4 24.8 29.2 30 29.2 36.4V94.8C29.2 99.6 25.2 104 20 104S10.8 100 10.8 94.8V36.8C10.8 20.4 24 7.2 40.4 7.2H215.2C231.6 7.2 244.8 20.4 244.8 36.8V94.8C245.2 99.6 241.2 103.6 236 103.6z" />
    <glyph glyph-name="share-alt"
      unicode="&#xEA15;"
      horiz-adv-x="256" d="M52.8 159.2C54.4 157.6 56.8 156.8 58.8 156.8C61.2 156.8 63.6 157.6 65.2 159.6C68.8 163.2 68.4 168.8 64.8 172.4L42 194H89.6C111.2 194 128.8 176.4 128.8 154.8V94.8C128.8 90 132.8 85.6 138 85.6S147.2 89.6 147.2 94.8V154.8C147.2 186.4 121.6 212 90 212H42L65.2 233.6C68.8 236.8 69.2 242.8 65.6 246.4C62.4 250 56.4 250.4 52.8 246.8L16 212.8C13.2 210.4 12 206.8 12 203.6C12 200 13.6 196.8 16 194L52.8 159.2zM236 103.6C231.2 103.6 226.8 99.6 226.8 94.4V36.4C226.8 30 221.6 24.8 215.2 24.8H40.8C34.4 24.8 29.2 30 29.2 36.4V94.8C29.2 99.6 25.2 104 20 104S10.8 100 10.8 94.8V36.8C10.8 20.4 24 7.2 40.4 7.2H215.2C231.6 7.2 244.8 20.4 244.8 36.8V94.8C245.2 99.6 241.2 103.6 236 103.6z" />
    <glyph glyph-name="search"
      unicode="&#xEA16;"
      horiz-adv-x="256" d="M240.4 58L199.2 99.2C193.6 104.8 186 108 178 108C173.2 108 168.4 106.8 164.4 104.8L143.6 125.6C167.2 155.6 165.2 199.2 137.6 227.2C108 256.4 59.2 256.4 29.6 226.4C-0.4 196.4 -0.4 148 29.6 118C44.4 103.6 64 96 83.6 96C100.4 96 117.2 101.6 130.8 112.4L151.6 91.6C149.6 87.6 148.4 82.8 148.4 78C148.4 70 151.6 62.4 157.2000000000001 56.8L198.4 15.6C204.4 9.6 212 6.8 219.6 6.8S234.8 9.6 240.8 15.6C252 27.2 252 46.4 240.4 58zM42 131.2C19.2 154 19.2 191.2 42 214C53.6 225.6 68.4 231.2 83.2 231.2C98 231.2 113.2 225.6 124.8 214C147.6 191.2 147.6 154 124.8 131.2C102 108.4 64.8 108.4 42 131.2zM227.6 28.4C223.2 24 215.6 23.6 210.8 28.4L169.6 69.6C167.2 72 166 74.8 166 78S167.2 84 169.6 86.4S174.8 90 178 90S184 88.8 186.4 86.4L227.6 45.2C232.0000000000001 40.4 232.0000000000001 33.2 227.6 28.4z" />
    <glyph glyph-name="search-alt"
      unicode="&#xEA17;"
      horiz-adv-x="256" d="M245.6 33.2L179.6 86.8C206.8 124 204 177.2 170 210.8C152 228.8 128 238.8 102.4 238.8S52.8 228.8 34.8 210.8C-2.4 173.6 -2.4 112.8 34.8 75.6C52.8 57.6 76.8 47.6 102.4 47.6C126.8 47.6 149.6 56.8 167.6 73.2L234.4000000000001 19.2C236.0000000000001 18 238.0000000000001 17.2 240.0000000000001 17.2C242.8000000000001 17.2 245.2 18.4 246.8000000000001 20.4C250.0000000000001 24.4 249.6000000000001 30 245.6000000000001 33.2zM102.4 65.6C81.6 65.6 62.4 73.6 47.6 88.4C17.2 118.8 17.2 168 47.6 198C62.4 212.8 81.6 220.8 102.4 220.8C123.2 220.8 142.4 212.8 157.2 198C187.6 167.6 187.6 118.4 157.2 88.4C142.8 73.6 123.2 65.6 102.4 65.6z" />
    <glyph glyph-name="scroll-down"
      unicode="&#xEA18;"
      horiz-adv-x="256" d="M152 93.6L128 69.6L104 93.6C100.4 97.2 94.8 97.2 91.2 93.6S87.6 84.4 91.2 80.8L121.6 50.4C123.2 48.8 125.6 47.6 128 47.6S132.4 48.4 134.4 50.4L164.8 80.8C168.4 84.4 168.4 90 164.8 93.6S155.6 97.2 152 93.6zM167.2 248.8H88.8C66 248.8 47.6 230.4 47.6 207.6V47.6C47.6 24.8 66 6.4 88.8 6.4H167.2C190 6.4 208.4 24.8 208.4 47.6V208C208.4 230.8 190 248.8 167.2 248.8zM190.4 48C190.4 35.2 180 24.8 167.2 24.8H88.8C76 24.8 65.6 35.2 65.6 48V208C65.6 220.8 76 231.2 88.8 231.2H167.2C180 231.2 190.4 220.8 190.4 208V48zM128 151.2H129.6C130 151.2 130.8 151.6 131.2 151.6C131.6 152 132.4 152 132.8 152.4L134 153.6C135.6 155.2 136.8 157.6 136.8 160C136.8 162.4 136 164.8 134 166.4L132.8 167.6C132.4 168 131.6 168.4 131.2 168.4C130.8 168.4 130 168.8 129.6 168.8C126.8 169.2000000000001 123.6 168.4 121.6 166.4C120 164.8 118.8 162.4 118.8 160C118.8 157.6 119.6 155.2 121.6 153.6C123.2 152.4 125.6 151.2 128 151.2zM119.6 118.4C120 118 120 117.2 120.4 116.8C120.8 116.4 121.2 116 121.6 115.2L122.8 114C123.2 113.6 124 113.2 124.4 113.2C124.8 112.8 125.6 112.8 126 112.8H127.6C130 112.8 132.4 113.6 134 115.2C134.4 115.6 134.8 116 135.2 116.8C135.6 117.2 135.6 118 136 118.4C136.4 118.8 136.4 119.6 136.4 120V121.6C136.4 124 135.6 126.4 133.6 128C130.4 131.2 124.4 131.2 120.8 128C119.2 126.4 118 124 118 121.6V120C119.2 119.6 119.6 118.8 119.6 118.4z" />
    <glyph glyph-name="save"
      unicode="&#xEA19;"
      horiz-adv-x="256" d="M234.4 210L195.6 245.6L194.8 246C192 248 188.8 249.2 186 249.2H47.6C30.8 249.2 17.2 235.6 17.2 218.8V38C17.2 21.2 30.8 7.6 47.6 7.6H208.4C225.2 7.6 238.8 21.2 238.8 38V199.6C238.8 203.2 237.6 206.8 234.4 210zM159.6 230.8V208H76V230.8H159.6zM86 24.8V98.8H170V25.2H86zM220.8 37.6C220.8 30.8 215.2 25.2 208.4 25.2H188V102.4C188 110 181.6 116.4 174 116.4H82C74.4 116.4 68 110 68 102.4V24.8H47.6C40.8 24.8 35.2 30.4 35.2 37.2V218.4C35.2 225.2 40.8 230.8 47.6 230.8H58V204C58 196.4 64.4 190 72 190H163.6C171.2 190 177.6 196.4 177.6 204V230.8H184.8L220.8 197.6V37.6zM144.4 86H111.6C106.8 86 102.4 82 102.4 76.8S106.4 67.6 111.6 67.6H144.4C149.2 67.6 153.6 71.6 153.6 76.8S149.2 86 144.4 86zM144.4 55.6H111.6C106.8 55.6 102.4 51.6 102.4 46.4S106.4 37.2 111.6 37.2H144.4C149.2 37.2 153.6 41.2 153.6 46.4S149.2 55.6 144.4 55.6z" />
    <glyph glyph-name="rss-feed"
      unicode="&#xEA1A;"
      horiz-adv-x="256" d="M23.6 248.8C18.8 248.8 14.4 244.8 14.4 239.6S18.4 230.4 23.6 230.4C138 230.4 230.8 138.4 230.8 25.6C230.8 20.8 234.8 16.4 240 16.4S249.2 20.4 249.2 25.6C249.2 149.2 148 248.8 23.6 248.8zM23.6 195.2C18.8 195.2 14.4 191.2 14.4 186S18.4 176.8 23.6 176.8C109.2 176.8 178.4 108.8 178.4 25.6C178.4 20.8 182.4 16.4 187.6 16.4S196.8 20.4 196.8 25.6C196.8 119.6 119.2 195.2 23.6 195.2zM23.6 148C18.8 148 14.4 144 14.4 138.8S18.4 129.6 23.6 129.6C82 129.6 129.6 82.8 129.6 25.6C129.6 20.8 133.6 16.4 138.8 16.4S148 20.4 148 25.6C147.6 93.6 92 148 23.6 148zM23.6 99.6C18.8 99.6 14.4 95.6 14.4 90.4S18.4 81.2 23.6 81.2C54.4 81.2 79.2 56.4 79.2 26C79.2 21.2 83.2 16.8 88.4 16.8S97.6 20.8 97.6 26C97.6 66.4 64.4 99.6 23.6 99.6zM33.2 59.6C18.8 59.6 6.8 47.6 6.8 33.2S18.4 6.8 33.2 6.8S59.6 18.8 59.6 33.2S47.6 59.6 33.2 59.6zM33.2 24.8C28.8 24.8 24.8 28.4 24.8 33.2C24.8 38 28.4 41.6 33.2 41.6C37.6 41.6 41.6 38 41.6 33.2C41.6 28.8 38 24.8 33.2 24.8z" />
    <glyph glyph-name="rocket"
      unicode="&#xEA1B;"
      horiz-adv-x="256" d="M245.6 178L212.8 210.8L211.6 212C209.2 213.6 206.8 214.4 204.4 214.4L152.8000000000001 210C114 242.4 65.2 256.4 24 245.2C17.6 243.6 12.4 238.4 10.8 232C-0.4 191.2 13.6 142 46.4 103.6L42 52.8V52C42 49.6 42.8 46.8 44.4 44.8L78.4 10.4C80.8 8 83.6 6.8 86.8 6.8C88 6.8 89.2 6.8 90 7.2C94 8.4 97.2 12 98.4 16L103.2 58.8C108.8 56 114.4 53.6 120 51.6C122 50.8 124 50.4 126 50.4C131.2 50.4 136 52.4 139.6 56L199.2 115.6C204.4 120.8 206.4 128.8 204 135.6C202 141.2 199.6 146.8 196.8000000000001 152.4L238.8000000000001 157.2H239.6000000000001C244.0000000000001 158 247.2000000000001 161.2 248.4000000000001 165.6C249.6000000000001 170.4 248.8000000000001 174.8 245.6000000000001 178zM81.6 32L60 54L62.8 86.4C70 80 77.6 74 85.6 68.8L81.6 32zM186.4 128.8L127.2 69.6C126.8 69.2 126.4 69.2 126 69.2C105.2 76.4 85.2 89.2 68.8 105.6C33.6 141.2 17.6 188.8 28 227.2C28.4 227.6 28.4 228 28.8 228C36.8 230 44.8 231.2 53.2 231.2C86.4 231.2 122.4 215.6 150 187.6C166.4 171.2 179.2 151.2 186.4 130.4C186.8 129.6 186.8 129.2 186.4 128.8zM187.2 170C182 178 176 186 169.6 193.2L202 196L223.6 174.4L187.2 170zM221.2 95.2C220 96 215.6 98 210.8 94C206.8 90.8 188 72 184.4 68.4C158.8 42.8 158.8 42.8 160.4 37.2C160.8 35.6 161.6 34 162.8 33.2C175.6 20.4 195.2 17.6 210 17.6C221.2 17.6 229.6 19.2 230.4 19.6C234 20.4 236.8 23.2 237.6 26.8C238 28.8 246.4 71.6 223.6 94.4C222.4 94.4 221.6 94.8 221.2 95.2zM220.4 35.6C210 34.4 194 34.4 182 40.4C190.8 49.2 206.4 65.2 215.2 73.6C221.2 62.4 221.2 46 220.4 35.6zM104.4 184.8C86 184.8 71.2 170 71.2 151.6S86 118.4 104.4 118.4S137.6 133.2 137.6 151.6S122.8 184.8 104.4 184.8zM104.4 136C96 136 89.2 142.8 89.2 151.2S96 166.4 104.4 166.4S120 160 120 151.6S112.8 136 104.4 136z" />
    <glyph glyph-name="remove-file"
      unicode="&#xEA1C;"
      horiz-adv-x="256" d="M154.4 167.6H101.6C96.8 167.6 92.4 163.6 92.4 158.4S96.4 149.2 101.6 149.2H154.4C159.2 149.2 163.6 153.2 163.6 158.4S159.2 167.6 154.4 167.6zM198 248.8H58C44.4 248.8 33.6 238 33.6 224.4V96C33.6 90 36 84.4 40.4 80.4L112.4 12.4C116.4 8.4 121.6 6.4 127.2 6.4H197.6C211.2 6.4 222 17.2 222 30.8V224.4C222.4 238 211.2 248.8 198 248.8zM64.8 82.4H111.6C113.6 82.4 115.2 80.8 115.2 79.2V35.2L64.8 82.4zM204.4 31.6C204.4 28 201.6 25.2 198 25.2H133.2V79.2C133.2 90.8 123.6 100.4 111.6 100.4H51.6V224.4C51.6 228 54.4 230.8 58 230.8H197.6C201.2 230.8 204 228 204 224.4V31.6z" />
    <glyph glyph-name="reload"
      unicode="&#xEA1D;"
      horiz-adv-x="256" d="M33.6 140C34.8 140 36.4 140.4 37.6 140.8L82 156.4C86.8 158 89.2 163.2 87.6 168C86 172.8 80.8 175.2 76 173.6L48.4 164C61.6 198.4 95.2 221.6 133.6 221.6C175.6 221.6 212 193.6 222.4 153.6C223.6 148.8 228.4 146 233.2 147.2C238 148.4 240.8 153.2 239.6 158C227.2 206 183.6 239.6 133.2 239.6C88.4 239.6 48.8 213.2 32.4 173.6L24 197.6C22.4 202.4 17.2 204.8 12.4 203.2C7.6 201.6 5.2 196.4 6.8 191.6L22 148C24.4 142.8 28.8 140 33.6 140zM248.4 57.2L232 100C230.8 102.8 228.8 105.2 226 106.4C223.2 107.6 220 107.6 217.2 106.4L173.2 89.6C168.4 88 166.4 82.8 168 78C169.6 73.2 174.8 71.2 179.6 72.8L207.2 83.2C191.2 54 160 34.8 125.2 34.8C85.6 34.8 50.8 59.6 38.4 96.4C36.8 101.2 31.6 103.6 27.2 102C22.4 100.4 20 95.2 21.6 90.8C36.4 46.8 78 17.2 125.2 17.2C166.4 17.2 203.6 40 222.4 75.2L231.6 50.8C232.8 47.2 236.4 45.2 240 45.2C241.2 45.2 242 45.2 243.2 46C248 47.2 250 52.4 248.4 57.2z" />
    <glyph glyph-name="printer"
      unicode="&#xEA1E;"
      horiz-adv-x="256" d="M218.4 198V228C218.4 239.6 208.8 249.2 197.2 249.2H58.4C46.8 249.2 37.2 239.6 37.2 228V198C26 197.6 16.8 188.4 16.8 177.2V119.6C16.8 108.4 26 99.2 37.2 98.8V28C37.2 16.4 46.8 6.8 58.4 6.8H197.6C209.2 6.8 218.8 16.4 218.8 28V98.8C230 99.2 239.2 108.4 239.2 119.6V177.2C238.8 188.4 229.6 197.6 218.4 198zM55.6 228C55.6 229.6 56.8 231.2 58.8 231.2H198C199.6 231.2 201.2 230 201.2 228V198H55.6V228zM200.4 28C200.4 26.4 199.2 24.8 197.2 24.8H58.4C56.8 24.8 55.2 26 55.2 28V98.8H200.4V28zM220.8 119.6C220.8 118 219.6 116.4 217.6 116.4H38C36.4 116.4 34.8 117.6 34.8 119.6V177.2C34.8 178.8 36 180.4 38 180.4H217.6C219.2 180.4 220.8 179.2 220.8 177.2V119.6zM98 68H158C162.8 68 167.2 72 167.2 77.2S163.2 86.4 158 86.4H98C93.2 86.4 88.8 82.4 88.8 77.2S93.2 68 98 68zM200 163.2H170C165.2 163.2 160.8 159.2 160.8 154S164.8 144.8 170 144.8H200C204.8 144.8 209.2 148.8 209.2 154S205.2 163.2 200 163.2zM98 37.6H158C162.8 37.6 167.2 41.6 167.2 46.8S163.2 56 158 56H98C93.2 56 88.8 52 88.8 46.8S93.2 37.6 98 37.6z" />
    <glyph glyph-name="plug"
      unicode="&#xEA1F;"
      horiz-adv-x="256" d="M181.2 208.4H167.6V240C167.6 244.8 163.6 249.2 158.4 249.2S149.2 245.2 149.2 240V208.4H106.4V240C106.4 244.8 102.4 249.2 97.2 249.2S88 245.2 88 240V208.4H74.4C65.2 208.4 57.2 200.8 57.2 191.2V141.6C57.2 112.4 81.2 88.4 110.4 88.4H118.4V16C118.4 11.2 122.4 6.8 127.6 6.8C132.4 6.8 136.8 10.8 136.8 16V88.4H144.8C174 88.4 198 112.4 198 141.6V191.2C198 200.8 190.4 208.4 181.2 208.4zM180 141.6C180 122 164 106.4 144.8 106.4H111.2C91.6 106.4 76 122.4 76 141.6V190.4H180V141.6z" />
    <glyph glyph-name="package"
      unicode="&#xEA20;"
      horiz-adv-x="256" d="M248 170.8L230 226.8C226.8 237.2 216.8 244.4 206 244.4H52.4C41.6 244.4 32 237.6 28.4 227.6L8.4 171.2C7.6 168.8 7.2 166.4 7.2 163.6V42.4C7.2 25.2 21.2 11.6 38 11.6H218.4C235.6 11.6 249.2 25.6 249.2 42.4V164C249.2 166 248.8 168.4 248.0000000000001 170.8zM212.8 221.2L227.6 174.8H137.2V226.4H206C208.8 226.4 212 224.4 212.8 221.2zM45.2 221.6C46.4 224.4 49.2 226.4 52 226.4H118.8V174.8H28.8L45.2 221.6zM218 29.6H38C30.8 29.6 25.2 35.2 25.2 42.4V156.8H231.2V42.4C231.2 35.2 225.2 29.6 218 29.6z" />
    <glyph glyph-name="mouse"
      unicode="&#xEA21;"
      horiz-adv-x="256" d="M128 248.8C83.2 248.8 47.2 209.2 47.2 160.4V95.6C47.2 46.8 83.6 7.2 128 7.2C148.8 7.2 168.4 15.6 183.2 30.8C200 47.6 209.2 71.6 208.8 96V160.4C208.8 209.2 172.4 248.8 128 248.8zM190.8 160.4V156H137.6V230C168 224.8 190.8 195.6 190.8 160.4zM119.6 230.4V156H64.8V160.4C64.8 196.4 88.8 226 119.6 230.4zM170.4 43.2C158.8 31.6 143.6 25.2 128 25.2C93.2 25.2 65.2 56.8 65.2 95.6V138H191.2V95.6C191.2 75.6 183.6 56.4 170.4 43.2z" />
    <glyph glyph-name="mobile"
      unicode="&#xEA22;"
      horiz-adv-x="256" d="M139.6 218H116.4C111.6 218 107.2 214 107.2 208.8S111.2 199.6 116.4 199.6H139.6C144.4 199.6 148.8 203.6 148.8 208.8S144.4 218 139.6 218zM177.6 248.8H78.4C64.8 248.8 53.2 237.6 53.2 223.6V31.6C53.2 18 64.4 6.4 78.4 6.4H178C191.6 6.4 203.2 17.6 203.2 31.6V224C202.8 237.6 191.6 248.8 177.6 248.8zM184.8 32C184.8 28 181.6 24.8 177.6 24.8H78.4C74.4 24.8 71.2 28 71.2 32V224C71.2 228 74.4 231.2 78.4 231.2H178C182 231.2 185.2 228 185.2 224V32zM136.4 42.8C136 43.2 136 43.6 135.6 44L134.4 45.2C132.4 47.2 129.2 48.4 126.4 47.6C126 47.6 125.2 47.2 124.8 47.2C124.4 47.2 123.6 46.8 123.2 46.4L122 45.2L120.8 44C120.4 43.6 120.4 42.8 120 42.4C119.6 42 119.6 41.2 119.6 40.8V39.2C119.6 36.8 120.4 34.4 122.4 32.8L123.6 31.6C124 31.2 124.8 30.8 125.2 30.8C125.6 30.8 126.4 30.4 126.8 30.4H128.4C130.8 30.4 133.2 31.2 134.8 33.2L136 34.4C136.4 34.8 136.4 35.6 136.8 36C137.2 36.4 137.2 37.2 137.2 37.6V39.2V40.8C136.8 41.6 136.4 42 136.4 42.8z" />
    <glyph glyph-name="microphone"
      unicode="&#xEA23;"
      horiz-adv-x="256" d="M176.8 248.8C136.8 248.8 104.4 216.4 104.4 176.4C104.4 169.6 105.6 162.8 107.2 156.4L17.2 66.8C3.6 53.2 3.6 30.8 17.2 17.2C24 10.4 32.8 7.2 42 7.2C51.2 7.2 60 10.4 66.8 17.2L156.8 107.2C163.2 105.2 169.6 104.4 176.8 104.4C216.8 104.4 249.2 136.8 249.2 176.8S216.4 248.8 176.8 248.8zM30 30C23.6 36.4 23.6 47.6 30 54L31.2 55.2L55.2 31.2L54.4 30.4C47.6 23.2 36.4 23.2 30 30zM67.6 43.6L43.6 67.6L115.2 138.8C121.2 128.8 129.6 120.8 139.2 114.8L67.6 43.6zM122.4 176.8C122.4 181.6 123.2 186 124 190.4L190 124C185.6 122.8 181.2 122.4 176.8 122.4C146.8 122.4 122.4 146.8 122.4 176.8zM207.6 132L132 207.6C142 221.6 158 230.8 176.4 230.8C206.4 230.8 230.8 206.4 230.8 176.4C231.2 158 221.6 141.6 207.6 132z" />
    <glyph glyph-name="mic"
      unicode="&#xEA24;"
      horiz-adv-x="256" d="M128 80.4C140.8 80.4 152.8 85.6 162 94.4C170.8 103.2 175.6 115.2 175.6 127.6V201.6C175.6 228 154.4 249.2 128 249.2C101.6 249.2 80.4 228 80.4 201.6V128C80.4 101.6 101.6 80.4 128 80.4zM98.4 201.6C98.4 218 111.6 231.2 128 231.2C144.4 231.2 157.6 218 157.6 201.6V128C157.6 120.4 154.8 112.8 149.2 107.2C143.6 101.6 136 98.4 128 98.4C111.6 98.4 98.4 111.6 98.4 128V201.6zM210.4 130C210.4 134.8 206.4 139.2 201.2 139.2S192 135.2 192 130C192 94.4 163.2 65.6 127.6 65.6C92.4 65.6 63.6 94.4 63.6 129.6C63.6 134.4 59.6 138.8 54.4 138.8S45.2 134.8 45.2 129.6C45.2 87.2 77.2 52.4 118.4 48V25.2H93.6C88.8 25.2 84.4 21.2 84.4 16S88.4 6.8 93.6 6.8H161.2C166 6.8 170.4 10.8 170.4 16S166.4 25.2 161.2 25.2H136.4V48C178 52.4 210.4 87.6 210.4 130z" />
    <glyph glyph-name="menu"
      unicode="&#xEA25;"
      horiz-adv-x="256" d="M240 136.8H16C11.2 136.8 6.8 132.8 6.8 127.6C6.8 122.8 10.8 118.4 16 118.4H240C244.8 118.4 249.2 122.4 249.2 127.6C249.2 132.8 244.8 136.8 240 136.8zM240 68.8H16C11.2 68.8 6.8 64.8 6.8 59.6S10.8 50.4 16 50.4H240C244.8 50.4 249.2 54.4 249.2 59.6S244.8 68.8 240 68.8zM16 187.2H240C244.8 187.2 249.2 191.2 249.2 196.4S245.2 205.6 240 205.6H16C11.2 205.6 6.8 201.6 6.8 196.4S11.2 187.2 16 187.2z" />
    <glyph glyph-name="map"
      unicode="&#xEA26;"
      horiz-adv-x="256" d="M229.6 184.8L170.4 198.4C170.4 199.6 170.8 200.4 170.8 201.6C170.8 221.6 154.8 237.6 135.2 237.6C115.2 237.6 99.2 221.6 99.2 201.6C99.2 197.6 100.4 192.4 102.8 186.4L91.2 184L38.8 198.8C31.2 200.8 23.2 199.6 16.8 194.8S6.8 182.8 6.8 174.8V60.4C6.8 49.2 14.4 39.2 25.2 36.4L88.4 18.4H88.8C89.6 18.4 90.4 18 91.2 18H93.2L166 33.2L218.8 20.8C220.8 20.4 222.4 19.9999999999999 224.4 19.9999999999999C230 19.9999999999999 235.6 21.9999999999999 240 25.5999999999999C246 30.4 249.6 37.5999999999999 249.6 45.1999999999999V160.4C249.2 172 241.2 182 229.6 184.8zM134.8 219.6C144.8 219.6 152.4 211.6 152.4 201.6C152.4 197.2 146.8 184 134.4 164.8C122 184 116.4 196.8 116.4 201.6C116.8 211.6 124.8 219.6 134.8 219.6zM110.4 170C114.8 162 120 154 124.8 147.2C126.8 144 130.8 142 134.4 142C138.4 142 142 144 144 147.2C148 153.2 152.4 159.6 156.4 166.4V50.4L100 38.4V167.6L110.4 170zM25.2 60.8V174.8C25.2 177.2 26.4 179.2 28 180.4S32 182 34 181.6L82 168V39.2L30 54C27.2 54.8 25.2 57.6 25.2 60.8zM231.2 46C231.2 43.2 229.6 41.2 228.4 40.4C227.6 39.6 225.2 38.4 222.4 39.2L174.4 50.4V179.2L225.6 167.2C228.8 166.4 231.2 163.6 231.2 160.4V46zM136.4 194C136.8 194 137.6 194.4 138 194.4C138.4 194.4 139.2 194.8 139.6 195.2L140.8 196.4C142.4 198 143.6 200.4 143.6 202.8C143.6 205.2 142.8 207.6 140.8 209.2L139.6 210.4C139.2 210.8 138.4 211.2 138 211.2C137.6 211.6 136.8 211.6 136.4 211.6C133.6 212 130.4 211.2 128.4 209.2C126.8 207.6 125.6 205.2 125.6 202.8C125.6 200.4 126.4 198 128.4 196.4C130 194.8 132.4 193.6 134.8 193.6C135.2 194 136 194 136.4 194z" />
    <glyph glyph-name="map-marker"
      unicode="&#xEA27;"
      horiz-adv-x="256" d="M128 248.8C72.8 248.8 28 205.6 28 152.4C28 112 81.6 48 113.2 13.6C117.2 9.2 122.4 7.2 128 7.2C133.6 7.2 138.8 9.6 142.8 13.6C174.4 48 228 112 228 152.4C228 205.6 183.2 248.8 128 248.8zM129.6 25.6C128.8 24.8 127.6 24.8 126.4 25.6C87.6 68 46 123.2 46 152.4C46 195.6 82.8 230.8 128 230.8S210 195.6 210 152.4C210 123.2 168.4 68 129.6 25.6zM128 193.2C104 193.2 84.4 173.6 84.4 149.6S104 105.6 128 105.6S171.6 125.2 171.6 149.2S152 193.2 128 193.2zM128 123.6C113.6 123.6 102.4 135.2 102.4 149.2S114 174.8 128 174.8S153.6 163.2 153.6 149.2S142.4 123.6 128 123.6z" />
    <glyph glyph-name="magnifier"
      unicode="&#xEA28;"
      horiz-adv-x="256" d="M241.6 54.8L194.8 101.2C190 106 183.6 108.8 176.8 108.8C172 108.8 167.6 107.6 163.6 105.2L142.8 126C153.2 139.2 159.2 155.6 159.2 173.2C159.2 193.6 151.2 212.8 136.8 227.2C122.4 241.6 103.2 249.6 82.8 249.6S43.2 241.6 28.8 227.2C14.4 212.8 6.4 193.6 6.4 173.2S14.4 133.6 28.8 119.2C43.2 104.8 62.4 96.8 82.8 96.8C100 96.8 116.4 102.4 130 113.2L150.8 92.4C148.4 88.4 147.2 84 147.2 79.2C147.2 72.4 150 66 154.8 61.2L201.2 14.8C206 10 212.4 7.2 219.2 7.2C226.0000000000001 7.2 232.4 10 237.2 14.8L241.6 19.2C246.4000000000001 24 249.2 30.4 249.2 37.2C249.2 43.6 246.4 50 241.6 54.8zM42 131.6C31.2 142.4 24.8 157.2 24.8 172.8S30.8 202.8 42 214S67.6 231.2 83.2 231.2S113.2 225.2 124.4 214S141.6 188.4 141.6 172.8S135.6 142.8 124.4 131.6S98.8 114.4 83.2 114.4S53.2 120.8 42 131.6zM228.8 31.6L224.4 27.2C221.6 24.4 216.8 24.4 213.6 27.2L167.2 73.6C164.4 76.4 164.4 81.2 167.2 84.4L171.6 88.8C173.2 90.4 174.8 90.8 176.8 90.8S180.8 90 182 88.8L228.4 42.4C230 40.8 230.4 39.2 230.4 37.2C231.2 34.8 230.4 32.8 228.8 31.6zM98.8 205.2C95.2 201.6 95.2 196 98.8 192.4C108.4 182.8 108.4 166.8 98.8 157.2C95.2 153.6 95.2 148 98.8 144.4C100.4 142.8 102.8 141.6 105.2 141.6S110 142.4 111.6 144.4C119.6 152.4 124 163.2 124 174.8S119.6 196.8 111.6 205.2C108 208.8 102 208.8 98.8 205.2z" />
    <glyph glyph-name="magnet"
      unicode="&#xEA29;"
      horiz-adv-x="256" d="M218 218C198.4 238 172.4 249.2 144.8 249.2C118.8 249.2 94.4 239.6 76 221.2L14.4 158.8C4.4 148.8 4.4 132.4 14.4 122.4L38 98.8C48 88.8 64.4 88.8 74.4 98.8L132.4 156.4C139.6 163.6 150.8 164.8 157.6 159.2C161.2 156.4 163.2 152 163.6 147.2C164 141.6 161.6 136.4 157.6 132.4L99.6 74.4C89.6 64.4 89.6 48 99.6 38L123.2 14.4C128 9.6 134.8 6.8 141.2 6.8S154.4 9.2 159.2 14.4L221.2 76.4C259.2 114.4 258 177.6 218 218zM61.6 112C58.8 109.2 53.6 109.2 50.8 112L27.2 135.6C24.4 138.4 24.4 143.6 27.2 146.4L47.6 166.8L82 132.4L61.6 112zM146.4 27.2C143.6 24.4 138.4 24.4 135.6 27.2L112 50.8C109.2 53.6 109.2 58.8 112 61.6L132.4 82L166.8 47.6L146.4 27.2zM208.8 89.2L180 60.4L145.6 94.8L170.8 120C178.4 127.6 182.4 138 182 148.4C181.6 158.4 176.8 167.2 169.2 173.6C162.8 178.8 155.2 181.2 147.2 181.2C137.2 181.2 127.2 177.2 119.6 169.6L95.2 145.2L60.8 179.6L89.6 208.4C104.4 222.8 124 231.2 145.2 231.2H145.6C168.4 231.2 189.6 222 206 205.2C238 172 239.6 120 208.8 89.2z" />
    <glyph glyph-name="link"
      unicode="&#xEA2A;"
      horiz-adv-x="256" d="M235.6 86.8L203.2 119.2C186.8 135.6 161.2 137.2 142.8 124L123.6 143.2000000000001C129.2 150.8 132.4 160 132.4 170C132.4 182.4 127.6 194.4 118.8 203.2000000000001L86.4 235.6C68.4 253.6 38.8 253.6 20.4 235.6C12 226.4 7.2 214.8 7.2 202.4C7.2 190 12 178.4 20.8 169.6L52.8 137.2C62 128 74 123.6 85.6 123.6C94.4 123.6 102.8 126 110.4 130.8L130.4 110.8C125.6 103.6 123.2 94.8 123.2 86C123.2 73.6 128 62 136.8 53.2L168.8 20.8C178 11.6 190 7.2 201.6 7.2C213.6 7.2 225.6 11.6 234.4 20.8C243.2 29.6 248 41.2 248 53.6C249.2 66 244.4 77.6 235.6 86.8zM65.6 150L33.6 182.4C28 188 25.2 195.2 25.2 202.8C25.2 210.4 28 217.6 33.6 223.2C39.2 228.8 46.4 231.6 54 231.6C61.2 231.6 68.8 228.8 74.4 223.2L106.8 191.2C112 185.6 115.2 178.4 115.2 170.8C115.2 165.6 114 161.2 111.6 156.8L101.6 166.8C98 170.4 92.4 170.4 88.8 166.8C85.2 163.2 85.2 157.6 88.8 154L98 144.8C86.8 139.2 74 141.2 65.6 150zM222.4 33.6C211.2 22.4 192.8 22.4 182 33.6L150 66C144.4 71.6 141.6 78.8 141.6 86.4C141.6 90.4 142.4 94.4 144 98L153.2 89.2C154.8 87.6 157.2 86.4 159.6 86.4C162 86.4 164.4 87.2 166 89.2C169.6 92.8 169.6 98.4 166 102L156 110.8C160.4 113.2 165.2 114.4 170 114.4C177.2 114.4 184.8 111.6 190.4 106L222.8 74C228 68.4 231.2 61.2 231.2 53.6C230.8 46 228.0000000000001 38.8 222.4 33.6z" />
    <glyph glyph-name="laptop"
      unicode="&#xEA2B;"
      horiz-adv-x="256" d="M248.8 41.2L232.8 110.4C233.6 111.6 234 113.2 234 114.4V206.4C234 220 222.8 231.6 208.8 231.6H47.2C33.6 231.6 22 220.4 22 206.4V114.4C22 113.2 22.4 111.6 22.8 110.8L6.8 40.8C6 36.8 7.2 32.8 10 29.6C12.8 26.4 16.8 24.4 21.2 24.4H234.8C239.2 24.4 243.6 26.4 246 30C248.8 33.2 249.6 37.6 248.8 41.2zM40.4 206.4C40.4 210.4 43.6 213.6 47.6 213.6H208.8C212.8 213.6 216 210.4 216 206.4V123.2H40.4V206.4zM26 42.4L40.4 105.2H215.2L229.6 42.4H26z" />
    <glyph glyph-name="laptop-phone"
      unicode="&#xEA2C;"
      horiz-adv-x="256" d="M232.4 167.6H208.4V214.4C208.4 228 197.6 238.8 184 238.8H52C38.4 238.8 27.6 228 27.6 214.4V144.4C25.2 142.4 23.2 139.6 22 136L7.2 64C6.4 60 7.6 55.6 10.4 52.4C12.8 49.2 16.8 47.6 20.8 47.6H149.6V33.6C149.6 24.4 157.2 16.8 166.4 16.8H232.4000000000001C241.6 16.8 249.2000000000001 24.4 249.2000000000001 33.6V150.8C249.2000000000001 160 241.6000000000001 167.6 232.4000000000001 167.6zM26 65.6L39.2 129.2H150V65.6H26zM149.6 150.8V147.2H45.6V214.4C45.6 218 48.4 220.8 52 220.8H184C187.6 220.8 190.4 218 190.4 214.4V167.6H166.4C157.2 167.6 149.6 160 149.6 150.8zM231.2 35.2H167.6V149.6H231.2V35.2zM190.4 118.8H210.4C215.2 118.8 219.6 122.8 219.6 128C219.6 132.8 215.6 137.2 210.4 137.2H190.4C185.6 137.2 181.2 133.2 181.2 128C181.2 123.2 185.2 118.8 190.4 118.8zM199.6 56.8C199.2 56.8 198.4 56.4 198 56.4C197.6 56 196.8 56 196.4 55.6L195.2 54.4C193.6 52.8 192.4 50.4 192.4 48C192.4 45.6 193.2 43.2 195.2 41.6L196.4 40.4C196.8 40 197.6 39.6 198 39.6C198.4 39.2 199.2 39.2 199.6 39.2H201.2C203.6 39.2 206 40 207.6 42C209.2 43.6 210.4 46 210.4 48.4C210.4 50.8 209.6 53.2 207.6 54.8C205.6 56.4 202.4 57.2 199.6 56.8z" />
    <glyph glyph-name="keyboard"
      unicode="&#xEA2D;"
      horiz-adv-x="256" d="M224 208.4H32C18.4 208.4 6.8 197.2 6.8 183.2V72.8C6.8 59.2 18 47.6 32 47.6H224C237.6 47.6 249.2 58.8 249.2 72.8V183.2C249.2 197.2 237.6 208.4 224 208.4zM231.2 72.8C231.2 68.8 228 65.6 224 65.6H32C28 65.6 24.8 68.8 24.8 72.8V183.2C24.8 187.2 28 190.4 32 190.4H224C228 190.4 231.2 187.2 231.2 183.2V72.8zM168.8 100.4H87.2C82.4 100.4 78 96.4 78 91.2S82 82 87.2 82H168.8C173.6 82 178 86 178 91.2S173.6 100.4 168.8 100.4zM94 160C94 164.8 90 169.2 84.8 169.2H78C73.2 169.2 68.8 165.2 68.8 160S72.8 150.8 78 150.8H84.8C90 150.8 94 154.8 94 160zM124.4 150.8H131.2C136 150.8 140.4 154.8 140.4 160S136.4 169.2 131.2 169.2H124.4C119.6 169.2 115.2 165.2 115.2 160S119.6 150.8 124.4 150.8zM178 168.8H171.2C166.4 168.8 162 164.8 162 159.6S166 150.4 171.2 150.4H178C182.8 150.4 187.2 154.4 187.2 159.6S182.8 168.8 178 168.8zM101.2 120H108C112.8 120 117.2 124 117.2 128.8S113.2 138 108 138H101.2C96.4 138 92 134 92 128.8S96.4 120 101.2 120zM147.6 120H154.4C159.2 120 163.6 124 163.6 128.8S159.6 138 154.4 138H147.6C142.8 138 138.4 134 138.4 128.8S142.8 120 147.6 120z" />
    <glyph glyph-name="image"
      unicode="&#xEA2E;"
      horiz-adv-x="256" d="M40 248.08C34.787 247.004 30.772 244.597 26.731 240.124C19.741 232.387 20 236.679 20 128.536C20 24.489 19.975 25.038 25.02 17.676C26.304 15.802 29.586 12.746 32.314 10.885L37.274 7.5L127.887 7.5L218.5 7.5L223.094 10.2C225.62 11.686 228.9 14.491 230.382 16.435C236.234 24.107 236 19.47 236 127.588C236 224.37 235.949 227.062 234.006 232.253C231.877 237.945 226.806 243.554 221 246.64C217.672 248.409 213.237 248.507 130.5 248.651C82.65 248.734 41.925 248.477 40 248.08M213.403 229.862C214.777 229.236 216.373 227.369 216.95 225.713C218.19 222.157 218.452 85 217.219 85C216.79 85 209.67 90.537 201.397 97.305C193.125 104.073 184.813 110.26 182.928 111.055C177.643 113.283 169.851 112.696 164.795 109.689C162.433 108.284 153.305 99.904 144.512 91.067C135.718 82.23 128.174 75 127.747 75C127.321 75 117.415 83.579 105.736 94.064C94.056 104.549 82.83 113.999 80.79 115.064C76.123 117.499 67.149 117.642 62.7 115.353C60.94 114.447 54.775 109.471 49 104.295L38.5 94.884L38.243 159.358C38.08 200.251 38.349 224.787 38.978 226.443C39.524 227.879 40.99 229.463 42.235 229.963C45.742 231.372 210.303 231.275 213.403 229.862M149.286 196.61C138.949 193.231 131.69 186.829 127.101 177.046C124.933 172.424 124.502 170.084 124.513 163C124.525 155.768 124.938 153.659 127.285 148.857C130.651 141.973 137.249 135.702 144.825 132.189C152.882 128.452 164.096 128.441 172.12 132.163C180.003 135.82 185.438 141.114 189.24 148.837C192.116 154.677 192.496 156.404 192.463 163.479C192.417 173.283 189.1 181.53 182.673 187.817C174.248 196.058 159.49 199.945 149.286 196.61M167.048 176.747C176.497 170.379 176.896 156.476 167.824 149.715C164.264 147.061 156.458 146.364 151.853 148.288C140.196 153.159 138.91 170.498 149.742 176.776C154.929 179.782 162.562 179.77 167.048 176.747M86.5 87.376C122.89 54.694 123.744 54 127.608 54C130.951 54 132.752 55.514 152.66 75.065C164.458 86.651 174.524 95.988 175.03 95.815C175.536 95.642 185.177 87.85 196.454 78.5L216.958 61.5L216.979 45.079C216.997 31.182 216.746 28.376 215.345 26.829C213.766 25.084 209.75 25 128.159 25L42.629 25L40.314 27.174C38.04 29.311 38 29.703 38 50.069L38 70.79L54.02 85.395C62.831 93.428 70.594 99.989 71.27 99.975C71.947 99.961 78.8 94.292 86.5 87.376" />
    <glyph glyph-name="headphone"
      unicode="&#xEA2F;"
      horiz-adv-x="256" d="M214.4 184C190.8 207.2 159.6 219.6 126 218.8C60.4 218 7.2 164.8 7.2 100.4V54.4C7.2 45.2 14.8 37.2 24.4 37.2H49.2C58.4 37.2 66.4 44.8 66.4 54.4V89.6C66.4 98.8 58.8 106.8 49.2 106.8H25.2C28.4 158.8 72.4 200.8 126 201.6C154.4 202.4 181.6 191.6 201.6 172C219.6 154.4 230 131.5999999999999 230.8 107.1999999999999H207.2C198 107.1999999999999 190 99.5999999999999 190 89.9999999999999V54.8C190 45.6 197.6 37.6 207.2 37.6H232C241.2 37.6 249.2 45.2 249.2 54.8V102.8C249.2 132.8 236.8 162 214.4 184zM47.6 55.2H25.2V88.4H48V55.2zM231.2 55.2H208.4V88.4H231.2V55.2z" />
    <glyph glyph-name="harddrive"
      unicode="&#xEA30;"
      horiz-adv-x="256" d="M192.8 246.8H63.2C50 246.8 39.2 236 39.2 222.8V33.2C39.2 20 50 9.2 63.2 9.2H193.2C206.4 9.2 217.2 20 217.2 33.2V222.8C217.2 236 206.4 246.8 192.8 246.8zM199.2 33.2C199.2 29.6 196.4 27.2 193.2 27.2H63.2C59.6 27.2 57.2 30 57.2 33.2V222.8C57.2 226.4 60 228.8 63.2 228.8H193.2C196.8 228.8 199.2 226 199.2 222.8V33.2zM174.4 128C174.4 153.2 153.6 174 128.4 174S82.4 153.2 82.4 128C82.4 118.8 85.2 110 90 102.8C82.4 97.6 75.2 92 72.4 86.8C64 72.4 68.8 54 83.2 45.6C88 42.8 93.2 41.6 98.4 41.6C100.8 41.6 103.6 42 106 42.8C113.6 44.8 120.4 50 124.4 56.8C127.6 62 128.8 72 129.6 82.4C154.4 82.8 174.4 103.2 174.4 128zM108.8 65.6C107.2 62.8 104.4 60.8 101.6 60C98.4 59.2 95.2 59.6 92.4 61.2C89.6 62.8 87.6 65.6 86.8 68.4S86.4 74.8 88 77.6C90 81.2 100.4 88.4 112.4 95.2C112 81.6 110.8 68.8 108.8 65.6zM130 100C130 104.4 130 108.4 129.6 110.8C129.6 114 127.6 116.8 125.2 118.4C122.4 120 119.2 120 116.4 118.8C114 117.6 109.6 115.2 104.8 112.4C101.6 117.2 100 122.4 100 128.4C100 144 112.4 156.4 128 156.4S156 144 156 128.4C156.4 113.2 144.8 101.2 130 100zM171.2 54.8C169.6 53.2 168.4 50.8 168.4 48.4C168.4 46 169.2 43.6 171.2 42C172.8 40.4 175.2 39.2 177.6 39.2H179.2C179.6 39.2 180.4 39.6 180.8 39.6C181.2 40 182 40 182.4 40.4L183.6 41.6C185.2 43.2 186.4 45.6 186.4 48C186.4 50.4 185.6 52.8 183.6 54.4C180.4 58 174.4 58 171.2 54.8z" />
    <glyph glyph-name="game"
      unicode="&#xEA31;"
      horiz-adv-x="256" d="M237.6 155.6C230 163.2 219.2 168 208.4 168H136.8V229.6C136.8 234.4 132.8 238.8 127.6 238.8S118.4 234.8 118.4 229.6V167.6H48C25.6 167.6 7.2 149.6 7.2 127.2V57.6C7.2 35.2 25.6 17.2 48 17.2C68.4 17.2 85.2 32 88.4 50.8H168.4C171.6 31.6 188.4 16.8 208.8 16.8C231.2 16.8 249.6 34.8 249.6 57.2V127.2C249.2 137.6 245.2 147.6 237.6 155.6zM230.8 57.6C230.8 45.2 220.8 35.2 208 35.2S185.2 45.2 185.2 57.6C185.2 64 180 69.2 173.6 69.2H82.4C76 69.2 70.8 64 70.8 57.6C70.8 45.6 60.4 35.6 48 35.6C35.2 35.6 25.2 45.6 25.2 58V127.2C25.2 139.6 35.6 149.6 48 149.6H208.4C214.4 149.6 220.4 147.2 224.8000000000001 142.8C228.8000000000001 138.8 231.2000000000001 133.2 231.2000000000001 127.2V57.6zM84.4 116.8H75.6V125.2C75.6 130 71.6 134.4 66.4 134.4S57.2 130.4 57.2 125.2V116.8H48.4C43.6 116.8 39.2 112.8 39.2 107.6S43.2 98.4 48.4 98.4H57.2V90C57.2 85.2 61.2 80.8 66.4 80.8S75.6 84.8 75.6 90V98.4H84.4C89.2 98.4 93.6 102.4 93.6 107.6S89.2 116.8 84.4 116.8zM196 116H197.6C198 116 198.8 116.4 199.2 116.4C199.6 116.8 200.4 116.8 200.8 117.2L202 118.4C203.6 120 204.8 122.4 204.8 124.8C204.8 127.2 204 129.6 202 131.2L200.8 132.4C200.4 132.8 199.6 132.8 199.2 133.2C198.8 133.6 198 133.6 197.6 133.6C194.8 134 191.6 133.2 189.6 131.2C188 129.6 186.8 127.2 186.8 124.8C186.8 122.4 187.6 120 189.6 118.4C191.2 117.2 193.6 116 196 116zM184.8 114L183.6 115.2C183.2 115.6 182.4 115.6 182 116C181.6 116.4 180.8000000000001 116.4 180.4 116.4C177.6 116.8 174.4 116 172.4 114C170.8000000000001 112.4 169.6 110 169.6 107.6C169.6 105.2 170.4 102.8 172.4 101.2C173.2000000000001 100.4 174.4 99.6 175.2000000000001 99.2C176.4 98.8 177.6000000000001 98.4 178.8000000000001 98.4H180.4C181.2000000000001 98.4 181.6 98.8 182 98.8C182.4 98.8 183.2 99.2 183.6 99.6L184.8 100.8C186.4 102.4 187.6 104.8 187.6 107.2C187.6 110 186.4 112.4 184.8 114zM189.6 94.8C188 93.2 186.8 90.8 186.8 88.4C186.8 86 187.6 83.6 189.6 82L190.8 80.8C191.2 80.4 192 80 192.4 80C192.8 79.6 193.6 79.6 194 79.6H197.2C197.6 79.6 198.4 80 198.8 80C199.2 80.4 200 80.4 200.4 80.8L201.5999999999999 82C203.1999999999999 83.6 204.4 86 204.4 88.4C204.4 90.8 203.5999999999999 93.2 201.5999999999999 94.8C199.1999999999999 98.4 193.1999999999999 98.4 189.5999999999999 94.8zM221.6 111.2C221.2 111.6 221.2 112.4 220.8 112.8L219.6 114C217.6 116 214.4 117.2 211.6 116.4C211.2 116.4 210.4 116 210 116C209.6 116 208.8 115.6 208.4 115.2L207.2 114L206 112.8C205.6 112.4 205.2 111.6 205.2 111.2C204.8 110.8 204.8 110 204.8 109.6V108C204.8 105.6 205.6 103.2 207.6 101.6C209.2 100 211.6 98.8 214 98.8C216.4 98.8 218.8000000000001 99.6 220.4 101.6C222 103.2 223.2000000000001 105.6 223.2000000000001 108V109.6C222.0000000000001 110 222.0000000000001 110.4 221.6000000000001 111.2z" />
    <glyph glyph-name="folder"
      unicode="&#xEA32;"
      horiz-adv-x="256" d="M244 177.6V190.8C244 204.4 233.2 215.2 219.6 215.2H130.8L129.6 218.4C126.8 225.6 120 230 112.4 230H31.6C18 230 7.2 219.2 7.2 205.6V50C7.2 36.4 18 25.6 31.6 25.6H224.8C238.4 25.6 249.2 36.4 249.2 50V165.2C249.2 170 247.2 174.4 244 177.6zM219.6 197.6C223.2 197.6 226 194.8 226 191.2V183.6H143.6L138 197.6H219.6zM231.2 50C231.2 46.4 228.4 43.6 224.8 43.6H31.6C28 43.6 25.2 46.4 25.2 50V206C25.2 209.6 28 212.4 31.6 212.4L112.8 212L129.2 171.2C130.4 167.6 134 165.6 137.6 165.6H230.8S231.2 165.6 231.2 165.2V50z" />
    <glyph glyph-name="files"
      unicode="&#xEA33;"
      horiz-adv-x="256" d="M224 238.4H136.8C123.2 238.4 111.6 227.2 111.6 213.2V184.8H32C18.4 184.8 6.8 173.6 6.8 159.6V82.8C6.8 78 8.8 73.2 12.4 69.6L60 22.8C63.6 19.2 68.4 17.2 73.2 17.2H119.2C132.8 17.2 144 28.4 144 42.4V96.4L164.4 76C168 72.4 172.8 70.4 177.6 70.4H224C237.6 70.4 249.2 81.6 249.2 95.6V213.6C249.2 227.2 237.6 238.4 224 238.4zM37.6 70.8H59.6C60 70.8 60.4 70.4 60.4 70V48L37.6 70.8zM126.4 42.4C126.4 38.4 123.2 35.2 119.6 35.2H78.4V69.6C78.4 80 70 88.4 59.6 88.4H25.2V160.4C25.2 164.4 28.4 167.6 32.4 167.6H126C126.4 167.6 126.8 167.2000000000001 126.8 166.8000000000001V42.4zM144.4 122V124H164.4C164.8 124 165.2 123.6 165.2 123.2V101.2L144.4 122zM231.2 95.6C231.2 91.6 228 88.4 224 88.4H182.8V122.8C182.8 133.2 174.4 141.6 164 141.6H144V166.4C144 175.2 137.6 182.8 129.6 184.4V213.2C129.6 217.2 132.8 220.4 136.8 220.4H224C228 220.4 231.2 217.2 231.2 213.2V95.6z" />
    <glyph glyph-name="empty-file"
      unicode="&#xEA34;"
      horiz-adv-x="256" d="M198 248.8H58C44.4 248.8 33.6 238 33.6 224.4V96C33.6 90 36 84.4 40.4 80.4L112.4 12.4C116.4 8.4 121.6 6.4 127.2 6.4H197.6C211.2 6.4 222 17.2 222 30.8V224.4C222.4 238 211.2 248.8 198 248.8zM64.8 82.4H111.6C113.6 82.4 115.2 80.8 115.2 79.2V35.2L64.8 82.4zM204.4 31.6C204.4 28 201.6 25.2 198 25.2H133.2V79.2C133.2 90.8 123.6 100.4 111.6 100.4H51.6V224.4C51.6 228 54.4 230.8 58 230.8H197.6C201.2 230.8 204 228 204 224.4V31.6z" />
    <glyph glyph-name="download"
      unicode="&#xEA35;"
      horiz-adv-x="256" d="M240 80C235.2 80 230.8 76 230.8 70.8V35.2C230.8 31.6 228 28.8 224.4 28.8H31.6C28 28.8 25.2 31.6 25.2 35.2V70.8C25.2 76 20.8 80 16 80S6.8 76 6.8 70.8V35.2C6.8 21.6 17.6 10.8 31.2 10.8H224.4C238 10.8 248.8 21.6 248.8 35.2V70.8C249.2 76 244.8 80 240 80zM121.6 70C123.2 68.4 125.6 67.6 128 67.6S132.4 68.4 134.4 70L192.4 126.4C196 130 196 135.6 192.4 139.2C188.8 142.8 183.2 142.8 179.6 139.2L137.2 97.6V236C137.2 240.8 133.2 245.2 128 245.2C123.2 245.2 118.8 241.2 118.8 236V97.6L76.4 139.2C72.8 142.8 67.2 142.4 63.6 139.2C60 135.6 60.4 130 63.6 126.4L121.6 70z" />
    <glyph glyph-name="domain"
      unicode="&#xEA36;"
      horiz-adv-x="256" d="M30.8 108.8C27.2 108.8 24 110.4 22 113.2L8.4 132.8C5.6 136.8 6.8 142.4 10.8 145.2C14.8 148 20.4 146.8 23.2 142.8L30.4 132L36.4 140.8C38.4 143.6 41.6 145.2 45.2 145.2C48.8 145.2 52 143.6 54 140.8L60 132L67.2 142.8C70 146.8 75.6 148 79.6 145.2C83.6 142.4 84.8 136.8 82 132.8L68.4 113.2C66.4 110.4 63.2 108.8 59.6 108.8C56 108.8 52.8 110.4 50.8 113.2L44.8 122L38.8 113.2C37.6 110.4 34.4 108.8 30.8 108.8zM113.2 108.8C109.6 108.8 106.4 110.4 104.4 113.2L90.8 132.8C88 136.8 89.2 142.4 93.2 145.2C97.2 148 102.8 146.8 105.6 142.8L112.8 132L118.8 140.8C120.8 143.6 124 145.2 127.6 145.2C131.2 145.2 134.4 143.6 136.4 140.8L142.4 132L149.6 142.8C152.4 146.8 158 148 162 145.2C166 142.4 167.2 136.8 164.4 132.8L150.8000000000001 113.2C148.8000000000001 110.4 145.6000000000001 108.8 142 108.8C138.4 108.8 135.2 110.4 133.2 113.2L128 122.4L122 113.6C120 110.4 116.8 108.8 113.2 108.8zM134 131.2zM225.2 108.8C221.6 108.8 218.4 110.4 216.4 113.2L210.4 122L204.4 113.2C202.4 110.4 199.2 108.8 195.6 108.8C192 108.8 188.8 110.4 186.8 113.2L173.2 132.8C170.4 136.8 171.6 142.4 175.6 145.2C179.6 148 185.2 146.8 188 142.8L195.2 132L201.2 140.8C203.2 143.6 206.4 145.2 210 145.2C213.6 145.2 216.8 143.6 218.8 140.8L224.8 132L232 142.8C234.8 146.8 240.4 148 244.4 145.2C248.4 142.4 249.6 136.8 246.8 132.8L233.2 113.2C232 110.4 228.8 108.8 225.2 108.8zM204.4 131.2z" />
    <glyph glyph-name="display"
      unicode="&#xEA37;"
      horiz-adv-x="256" d="M224.4 218.4H31.6C18 218.4 7.2 207.6 7.2 194V102.8C7.2 89.2 18 78.4 31.6 78.4H119.2V55.6H87.6C82.8 55.6 78.4 51.6 78.4 46.4S82.4 37.2 87.6 37.2H169.2C174 37.2 178.4 41.2 178.4 46.4S174.4 55.6 169.2 55.6H137.6V78.4H225.2C238.8 78.4 249.6 89.2 249.6 102.8V194C249.2 207.6 238 218.4 224.4 218.4zM231.2 102.8C231.2 99.2 228.4 96.4 224.8 96.4H31.6C28 96.4 25.2 99.2 25.2 102.8V194C25.2 197.6 28 200.4 31.6 200.4H224.8C228.4 200.4 231.2 197.6 231.2 194V102.8z" />
    <glyph glyph-name="display-alt"
      unicode="&#xEA38;"
      horiz-adv-x="256" d="M224 240.8H32C18.4 240.8 6.8 229.6 6.8 215.6V94.8C6.8 81.2 18 69.6 32 69.6H94.8L84.8 32.8H66.8C62 32.8 57.6 28.8 57.6 23.6S61.6 14.4 66.8 14.4H188.8C193.6 14.4 198 18.4 198 23.6S194 32.8 188.8 32.8H170.8L160.8 69.6H224C237.6 69.6 249.2 80.8 249.2 94.8V215.6C249.2 229.6 237.6 240.8 224 240.8zM152.8 33.2H103.2L113.2 70H142.4L152.8 33.2zM231.2 95.2C231.2 91.2 228.0000000000001 88 224 88H32C28 88 24.8 91.2 24.8 95.2V215.6C24.8 219.6 28 222.8 32 222.8H224C228 222.8 231.2 219.6 231.2 215.6V95.2z" />
    <glyph glyph-name="database"
      unicode="&#xEA39;"
      horiz-adv-x="256" d="M128 248.8C81.2 248.8 44.4 226.8 44.4 199.2V56.8C44.4 29.2 82 7.2 127.6 7.2C173.6 7.2 211.2 29.6 211.2 56.8V199.2C211.6 227.2 174.8 248.8 128 248.8zM128 230.8C166.4 230.8 193.6 214 193.6 199.2C193.6 184 166.8 167.6 128 167.6S62.4 184.4 62.4 199.2C62.4 214.4 89.6 230.8 128 230.8zM128 24.8C90.4 24.8 62.8 41.6 62.8 56.4V72C78 60.8 101.2 54 128 54C154.8 54 178.4 61.2 193.6 72V56.4C193.6 41.6 165.6 24.8 128 24.8zM128 72C89.6 72 62.8 88 62.8 102.4V120.8C78.4 109.6 102.8 102.8 128 102.8C154.4 102.8 178 109.6 193.6 120.8V102.4C193.6 88 166.4 72 128 72zM183.2 135.6C170.8 126.4 150.4 120.8 128 120.8C106 120.8 85.2 126.4 72.8 135.6C68 138.8 62.8 144.4 62.8 151.2V168C78 156.8 101.6 149.6 128.4 149.6C155.2 149.6 178.8 156.8 194 168V151.2C193.6 144.8 188 139.2 183.2 135.6z" />
    <glyph glyph-name="dashboard"
      unicode="&#xEA3A;"
      horiz-adv-x="256" d="M128 198C61.2 198 6.8 139.2 6.8 66.8C6.8 62 10.8 57.6 16 57.6H240C244.8 57.6 249.2 61.6 249.2 66.8C249.2 139.2 194.8 198 128 198zM124 76L128 88.4L132 76H124zM150.8 76L140 109.6C138.4 114.8 133.6 118.4 128 118.4S117.6 114.8 116 109.6L105.2 76H25.2C29.6 134 74 180 128 180S226.4 134 230.8 76H150.8zM128 156.4C123.2 156.4 118.8 152.4 118.8 147.2V137.2C118.8 132.4 122.8 128 128 128C132.8 128 137.2 132 137.2 137.2V147.2C137.2 152.4 132.8 156.4 128 156.4zM185.6 126.8L179.2 120.4C175.6 116.8 175.6 111.2 179.2 107.6C180.8 106 183.2 105.2 185.6 105.2C188 105.2 190.4 106 192 108L198.4 114.4C202 118 202 123.6 198.4 127.2C194.8 130.8 189.2 130.4 185.6 126.8zM70.8 126.8C67.6 130.4 61.6 130.8 58 127.6C54.4 124.4 54 118.4 57.2 114.8L63.2 108.4C64.8 106.4 67.6 105.6 70 105.6C72 105.6 74.4 106.4 76 108C79.6 111.2 80 117.2 76.8 120.8L70.8 126.8z" />
    <glyph glyph-name="cut"
      unicode="&#xEA3B;"
      horiz-adv-x="256" d="M186.4 87.6C181.2 87.6 176.4 86.4 171.6 84.8L139.2 132.4L208.8 234.8C211.6 238.8 210.4 244.4 206.4 247.2C202.4 250 196.8 248.8 194 244.8L128 148.4L62 245.2C59.2 249.2 53.6 250.4 49.6 247.6C45.6 244.8 44.4 239.2 47.2 235.2L117.2 132.8L84.8 85.2C80.4 87.2 75.2 88 70 88C47.6 88 29.6 70 29.6 47.6S47.6 7.2 70 7.2S110.4 25.2 110.4 47.6C110.4 58 106.4 67.6 99.6 74.8L128 116.4L156.8 74.4C150 67.2 146 57.6 146 47.2C146 24.8 164 6.8 186.4 6.8S226.8 24.8 226.8 47.2S208.4 87.6 186.4 87.6zM69.6 24.8C57.2 24.8 47.2 34.8 47.2 47.2S57.2 69.6 69.6 69.6S92 59.6 92 47.2S82 24.8 69.6 24.8zM186.4 24.8C174 24.8 164 34.8 164 47.2S174 69.6 186.4 69.6C198.8 69.6 208.8 59.6 208.8 47.2S198.4 24.8 186.4 24.8z" />
    <glyph glyph-name="control-panel"
      unicode="&#xEA3C;"
      horiz-adv-x="256" d="M193.6 248.8H62.4C48.8 248.8 37.2 237.6 37.2 223.6V31.6C37.2 18 48.4 6.4 62.4 6.4H193.2C206.8 6.4 218.4 17.6 218.4 31.6V224C218.4 237.6 207.2 248.8 193.6 248.8zM200.4 32C200.4 28 197.2 24.8 193.2 24.8H62.4C58.4 24.8 55.2 28 55.2 32V224C55.2 228 58.4 231.2 62.4 231.2H193.2C197.2 231.2 200.4 228 200.4 224V32zM168.8 198.4H106.4V199.6C106.4 204.4 102.4 208.8 97.2 208.8S88 204.8 88 199.6V198.4H86.8C82 198.4 77.6 194.4 77.6 189.2S81.6 180 86.8 180H88V178.8C88 174 92 169.6 97.2 169.6S106.4 173.6 106.4 178.8V180H168.8C173.6 180 178 184 178 189.2S173.6 198.4 168.8 198.4zM168.8 136.8H167.6V138C167.6 142.8 163.6 147.2 158.4 147.2S149.2000000000001 143.2 149.2000000000001 138V136.8H87.2C82.4 136.8 78 132.8 78 127.6C78 122.8 82 118.4 87.2 118.4H149.6V117.2C149.6 112.4 153.6 108 158.8 108S168 112 168 117.2V118.4H169.2C174 118.4 178.4 122.4 178.4 127.6C177.5999999999999 132.8 173.5999999999999 136.8 168.8 136.8zM168.8 75.6H106.4V76.8C106.4 81.6 102.4 86 97.2 86S88 82 88 76.8V75.6H86.8C82 75.6 77.6 71.6 77.6 66.4S81.6 57.2 86.8 57.2H88V56C88 51.2 92 46.8 97.2 46.8S106.4 50.8 106.4 56V57.2H168.8C173.6 57.2 178 61.2 178 66.4S173.6 75.6 168.8 75.6z" />
    <glyph glyph-name="cogs"
      unicode="&#xEA3D;"
      horiz-adv-x="256" d="M172 119.6C152.8 119.6 136.8 103.6 136.8 84.4S152.4 49.2 172 49.2S207.2 65.2 207.2 84.4S191.2 119.6 172 119.6zM172 66.8C162.4 66.8 154.8 74.4 154.8 84S162.4 101.2 172 101.2S189.2 93.6 189.2 84C189.2 74.8 181.6 66.8 172 66.8zM247.2 71.2L234.8 78C235.2 80.4 235.2 82.8 235.2 84.8C235.2 87.2 235.2 89.6 234.8 91.6L247.6 98.8C252.4 101.6 254 107.2 252 112.4L236.8 138.4C234 142.8 228.4 144.8 223.6 142.8L209.6 135.2L209.2 135.6C206.8 137.6 204 140 200.4 142V150.4C200.4 158.8000000000001 193.6 166 184.8 166H158.8C150.4 166 143.2 159.2000000000001 143.2 150.4V142C139.6 140 136.8 137.6 134 135.6L122.4 142C115.2 146 109.2 143.2000000000001 106.8 138.8L92.4 114.4C90.8 112 90.4 108.8 91.2 106C92 103.2 94 100.8 96.4 99.6L109.2 92.8C108.8 90.8 108.8 88.4 108.8 86C108.8 83.6 108.8 81.6 109.2 79.2L96 70.8C91.2 68 89.6 62.4 91.6 57.2L106.8 31.2C109.6 26.8 115.2 24.8 120 26.8L134 34.4S134.4 34.4 134.4 34C137.2 31.6 139.6 29.6 143.6 27.6V18C143.6 9.6 150.4 2.4 159.2 2.4H185.2C193.6 2.4 200.8 9.2 200.8 18V28C204.4 30 206.8 32 209.6 34.4C209.6 34.4 210 34.4 210 34.8L221.6 28.4C228.8 24.4 234.8 27.2 237.2 31.6L251.6 56C253.2 58.4 253.6 61.6 252.8 64.4C251.6 67.6 250 70 247.2 71.2zM216.8 92C217.2 90 217.2 87.6 217.2 84.8C217.2 82.4 217.2 80 216.4 77.6C215.6 72 218 66.4 223.2 63.6L232.0000000000001 58.8L224.8000000000001 46.8L215.2000000000001 52.4C210.4 55.2 204.8000000000001 54.4 200.8000000000001 51.2C199.6000000000001 50.4 198.4 49.2 197.6000000000001 48.4C195.2000000000001 46.4 193.6000000000001 44.8 191.2000000000001 44C186.0000000000001 41.6 182.4 36 182.4 30V20.8H161.2000000000001V29.6C161.2000000000001 35.6 157.6000000000001 41.2 152.4 43.6C150 44.8 148.4 46 146 48.4C144.8000000000001 49.2 144 50 142.8000000000001 51.2C138.8000000000001 54.4 132.8000000000001 54.8 128.4 52.4L118.8000000000001 46.8L111.6 58.8L120.8000000000001 64C125.6 66.8 128.4 72 127.6 77.6C127.2 80 127.2 82.4 127.2 84.8C127.2 87.6 127.2 89.6 127.6 92C128.4 97.6 126.0000000000001 103.2 120.8000000000001 106L112 110.8L118.8 122.8L128.4 117.6C133.2 114.8 138.8 115.6 142.8 118.8C144 119.6 144.8 120.4 146 121.6C148.4 124 150.4 125.2 152.4 126.4C157.6 128.8000000000001 161.2 134.4 161.2 140.4V148H182.4V140.8C182.4 134.8 186 129.2 191.2 126.8C193.2 125.6 194.8 124.4 197.6 122.4C198.8 121.6 200 120.4 201.2 119.6C205.2 116.4 210.8 116 215.6 118.4L225.2 124L232.4 112L223.2 106.8C218.4 103.2 215.6 97.6 216.8 92zM61.2 209.6C53.2 209.6 46.4 202.8 46.4 194.8S53.2 180 61.2 180S76 186.8 76 194.8S69.6 209.6 61.2 209.6zM108 157.6L118 174.4C119.2 176.8 119.6 179.6 119.2 182.4S116.8 187.2 114.4 188.4L107.2 192V195.2V198.4L114.4 202.4C118.8 204.8 120.8 210.4 118.8 215.2L108 233.2C105.6 237.2 100 239.2 95.6 237.2L87.6 232.8C86.4 233.6 85.2 234.8 84 235.6V239.6C84 247.2 78 253.2 70.4 253.2H52.4C44.8 253.2 38.8 247.2 38.8 239.6V235.6C37.6 234.4 36.4 233.6 35.2 232.4L28.8 236C22.4 239.6 16.8 236.8 14.4 232.8L4.4 216C3.2 213.6 2.8 210.8 3.2 208C4 205.2 5.6 203.2 8 202L14.8 198V192L8 188C3.6 185.6 1.6 180 3.6 175.2L14 157.2C16.4 152.8 22 151.2 26.4 153.2L34.4 157.6C35.6 156.8 36.8 155.6 38.4 154.8V150C38.4 142.4 44.4 136.4 52 136.4H70C77.6 136.4 83.6 142.4 83.6 150V155.2C84.8 156 86 157.2 87.2 158L93.6 154.4C99.6 150.8 105.6 153.2 108 157.6zM79.2 174.4C78.4 173.6 77.6 173.2 76.8 172.4C75.2 170.8 74.4 170.4 73.2 169.6C68.4 167.2 65.6 162.8 65.6 157.6V154.4H56.8V157.6C56.8 162.8 53.6 167.6 49.2 169.6C48 170 47.2 170.8 45.2 172.4C44.4 173.2 43.6 173.6 42.8 174.4C39.2 177.6 34 178 29.6 175.6L25.6 173.2L24 176.4L27.6 178.4C32 180.8 34.4 185.6 33.6 190.4C33.6 192 33.2 193.6 33.2 195.2C33.2 196.8 33.2 198.4 33.6 199.6C34.4 204.4 32 209.6 27.6 212L24 214L26 217.2L30 214.8C34.4 212.4 39.2 212.8 43.2 216C44 216.8 44.8 217.2 45.2 218C46.8 219.6 48 220.4 49.2 220.8C54 223.2 56.8 227.6 56.8 232.8V234.8H65.6V232.8C65.6 227.6 68.4 222.8 73.2 220.8C74.4 220.4 75.2 219.6 76.8 218C77.6 217.2 78.4 216.8 79.2 216C82.8 212.8 88 212.4 92.4 214.8L96.4 217.2L98.4 214L94.8 212C90.4 209.6 88 204.4 88.8 199.6C89.2 198.4 89.2 196.8 89.2 195.2C89.2 193.6 89.2 192.4 88.8 190.8C88 185.6 90.4 180.8 94.8 178.4L98 176.4L96 173.2L92 175.6C88 178 82.8 177.6 79.2 174.4z" />
    <glyph glyph-name="cog"
      unicode="&#xEA3E;"
      horiz-adv-x="256" d="M128.4 177.6C101.2 177.6 78.8 155.2 78.8 128C78.8 100.4 101.2 78.4 128.4 78.4S178 100.4 178 128C178 155.2 155.6 177.6 128.4 177.6zM128.4 96C110.8 96 96.8 110.4 96.8 127.6C96.8 145.2 110.8 159.2 128.4 159.2S160 145.2 160 128C160 110.4 145.6 96 128.4 96zM242.8 103.6L220.4 116C221.2 120.4 221.6 124.8 221.6 129.2C221.6 134 221.2 138.4 220.8 142.8L243.6 155.6C248.8 158.4 250.8 164.8 248.4 170.4L225.2 209.6C222.4 214.4 216 216.4 210.8 214.4L186.8 201.2C185.6 202 184.4 203.2 183.6 204C179.2 207.6 175.2 211.2 168.8 214.4C168.4 214.4 168 214.8 168 215.6V230C168 240.4 159.6 249.2 148.8 249.2H107.6C97.2 249.2 88.4 240.4 88.4 230V214.4C88.4 214 88 213.6 87.6 213.2C81.6 210.4 77.2 206.4 72.4 202.8C71.6 202 70.4 201.2 69.6 200.4L48.4 212.4C40.4 216.8 33.6 214 30.8 209.2L8.8 171.2C7.6 168 7.2 164.8 8 161.6C8.8 158.4 10.8 156 13.6 154.4L36 142.4C35.2 138.4 35.2 134 35.2 128.8C35.2 124.4 35.6 120 36 115.6L12.8 102.8C7.6 100 5.6 93.6 8 88L31.2 48.8C34 44 40 42 45.6 44L69.6 57.2C70.8 56.4 71.6 55.6 72.8 54.4C77.2 50.4 81.6 46.8 88 44C88.4 44 88.8 43.6 88.8 42.8V25.6C88.8 15.2 97.2 6.4 108 6.4H148.8C159.2 6.4 168 15.2 168 25.6V44C168 44.4 168.4 44.8 168.8 45.2C174.8 48 178.8 51.6 183.6 55.6C184.8 56.4 185.6 57.2 186.8 58.4L208 46.4C216 42 222.4 44.8 225.6 49.6L248 87.6C249.6 90.4 250 93.6 249.2 96.4S245.6 102 242.8 103.6zM212.4 64L193.2 74.8C187.6 78 181.2 77.2 176.4 73.2C174.4 71.6 172.8 70.4 171.2 68.8C167.2 65.2 164.4 62.8 160.4 61.2C154 58 149.6 51.2 149.6 44V26.4C149.6 25.6 149.2 25.2 148.4 25.2H107.6C106.8 25.2 106.4 25.6000000000001 106.4 26.4V43.6C106.4 50.8 102 57.6 95.6 60.8C91.6 62.8 88.4 65.2 84.4 68.8C82.8 70 81.2 71.6 79.2 72.8C76.4 74.8 73.2 76 69.6 76C67.2 76 64.4 75.2 62 74L42.8 63.2L26.8 90.4L45.6 100.8C51.2 104 54.4 110 53.6 116.8C53.2 120.8 52.8 124.8 52.8 128.8C52.8 133.2 53.2 137.2 53.6 140.4C54.8 147.2 51.6 154 45.6 157.2L28 167.2L43.6 194L62.8 183.2C68.4 180 74.8 180.8 79.6 184.8C81.2 186 82.8 187.6 84.4 188.8C88.4 192.4 91.6 194.8 95.6 196.8C102.4 200 106.4 206.8 106.4 214V229.6C106.4 230.4 106.8 230.8 107.6 230.8H148.4C149.2 230.8 149.6 230.4 149.6 229.6V214.4C149.6 207.2 154 200.4 160.4 197.2C164.4 195.2 167.2 192.8 171.2 189.6C172.8 188 174.4 186.8 176.4 185.2C181.2 181.2 188 180.8 193.2 184L212.4 194.8L228.4 167.6L210 157.2C204.4 154 201.2 147.2 202.4 140.4C202.8 136.8 203.2 132.8 203.2 128.8S202.8 120.8 202 116.8C200.8 110 204 103.6 210 100.4L228 90.4L212.4 64z" />
    <glyph glyph-name="code"
      unicode="&#xEA3F;"
      horiz-adv-x="256" d="M78.4 199.6C74.8 202.8 68.8 202.4 65.6 198.8L10.4 136.4C6 131.6 6 124 10.4 119.2L66 56.8C67.6 54.8 70.4 53.6 72.8 53.6C74.8 53.6 77.2 54.4 78.8 56C82.4 59.2 82.8 65.2 79.6 68.8L26.8 128L79.2 186.8C82.8 190.8 82.4 196.4 78.4 199.6zM245.6 136.4L190 198.8C186.8 202.4 181.2 202.8 177.2 199.6S173.2 190.8 176.4 186.8L229.2 128L176.8 69.2C173.6 65.6 174 60 177.6 56.4C179.2 54.8 181.6 54 183.6 54C186 54 188.4 55.2 190.4 57.2L246.0000000000001 119.6C250.0000000000001 124.4 250.0000000000001 131.6 245.6 136.4zM151.6 198.4C146.8 200 141.6 197.6 140.4 192.8L98.8 69.2C97.2 64.4 99.6 59.2 104.4 58C105.2 57.6 106.4 57.6 107.2 57.6C110.8 57.6 114.4 60 115.6 63.6L156.8 187.2C158.8 191.6 156.4 196.8 151.6 198.4z" />
    <glyph glyph-name="code-alt"
      unicode="&#xEA40;"
      horiz-adv-x="256" d="M224 226.4H32C18.4 226.4 6.8 215.2 6.8 201.2V110.8C6.8 97.2 18 85.6 32 85.6H119.2V47.6H92.8C88 47.6 83.6 43.6 83.6 38.4S87.6 29.2 92.8 29.2H164C168.8 29.2 173.2 33.2 173.2 38.4S169.2 47.6 164 47.6H137.6V85.6H224C237.6 85.6 249.2 96.8 249.2 110.8V201.2C249.2 215.2 237.6 226.4 224 226.4zM231.2 110.8C231.2 106.8 228 103.6 224 103.6H32C28 103.6 24.8 106.8 24.8 110.8V201.2C24.8 205.2 28 208.4 32 208.4H224C228 208.4 231.2 205.2 231.2 201.2V110.8zM180.4 185.6C176.8 189.2 171.2 189.2 167.6 185.6C164 182 164 176.4 167.6 172.8L182.4 158L168 143.2C164.4 139.6 164.4 134 168 130.4C169.6 128.8 172 127.6 174.4 127.6C176.8 127.6 179.2 128.4 180.8 130.4L200.8 150.4C204.8 154.4 204.8 160.8 200.8 164.8L180.4 185.6zM73.2 156.4L87.6 170.8C91.2 174.4 91.2 180 87.6 183.6C84 187.2 78.4 187.2 74.8 183.6L54.8 163.6C50.8 159.6 50.8 153.2 54.8 149.2L75.2 128.8C76.8 127.2 79.2 126 81.6 126C84 126 86.4 126.8 88 128.8C91.6 132.4 91.6 138 88 141.6L73.2 156.4zM140.4 187.6C135.6 189.6 130.4 187.2 128.8 182.4L110.4 136C108.4 131.2 110.8 126 115.6 124.4C116.8 124 117.6 123.6 118.8 123.6C122.4 123.6 125.6 125.6 127.2 129.2L145.6 176C147.2 180.4 145.2 186 140.4 187.6z" />
    <glyph glyph-name="cloud-upload"
      unicode="&#xEA41;"
      horiz-adv-x="256" d="M138.4 147.6C136 150 132.8 151.2 129.6 151.2C126.4 151.2 123.2 150 120.8 147.6L102 128C98.4 124.4 98.8 118.8 102.4 115.2C106 111.6 111.6 112 115.2 115.6L121.2 121.6V90.8C121.2 86 125.2 81.6 130.4 81.6C135.2 81.6 139.6 85.6 139.6 90.8V121.6L145.6 115.6C147.2 113.6 149.6 112.8 152 112.8C154.4 112.8 156.4 113.6 158.4 115.2C162 118.8 162 124.4 158.8 128L138.4 147.6zM229.2 161.6C218.4 173.2 203.6 180.8 188 183.6C179.2 197.2 166.4 207.2 151.6 212.4C144.8 214.8 136.8 216.4 128.4 216.4C90.8 216.4 59.6 187.6 57.2 151.2C28.8 147.6 7.2 124 7.2 95.6C7.2 64.8 32.4 40 63.6 40H174.8C215.6 40 249.2 72.4 249.2 112.4C249.2 130.4 242.0000000000001 148 229.2 161.6zM174.8 57.6H64C42 57.6 25.2 74.4 25.2 95.2C25.2 116.4 42.4 132.8 64 132.8H66C70.8 132.8 75.2 136.8 75.2 142V146C75.2 174.8 99.2 198 128.4 198C134.8 198 140.4 197.2 145.6 195.2C158 191.2 168.4 182.4 174.8 170.8C176.4 168.4 178.8 166.4 181.6 166.4C194.8 165.2 207.6 158.8 216.4 149.2C226 138.8 231.2 125.6 231.2 112C231.2 82 205.6 57.6 174.8 57.6z" />
    <glyph glyph-name="cloud-sync"
      unicode="&#xEA42;"
      horiz-adv-x="256" d="M158.8 72C155.2 74.4 150 73.6 147.6 69.6C143.2 62.8 135.6 58.8 127.2 58.8C123.2 58.8 119.2 60 115.6 61.6H123.2C127.6 61.6 131.2 65.2 131.2 69.6S127.6 77.6 123.2 77.6H98C92.8 77.6 88 73.2 88 67.6V48C88 43.6 91.6 40 96 40S104 43.6 104 48V50.4C110.8 46 118.4 43.2 126.8 43.2C140.4 43.2 152.8 50 160.4 61.2C163.6 64.4 162.4 69.6 158.8 72zM170.8 130C170.8 134.4 167.2 138 162.8 138S154.8 134.4 154.8 130V126C146.8 132 137.2 136.8 128.4 136.8C113.2 136.8 99.6 128.4 92.4 114.8C90.4 110.8 92 106 95.6 104C99.6 102 104.4 103.6 106.4 107.2C110.8 115.6 119.2 120.8 128.4 120.8C134 120.8 142.4 116 148 110.8H140.8C136.4 110.8 132.8 107.2 132.8 102.8S136.4 94.8 140.8 94.8H160.8C166 94.8 170.8 99.2 170.8 104.8V130zM232 162.4C221.2 174.4 205.6 182.8 189.2 185.6C180.4 200 167.2 210.8 151.6 216C144.4 218.8 136.8 220 128 220C89.2 220 57.2 189.2 55.6 150.8C26.8 148 4 123.2 4 93.6C4 62 30 36 61.6 36C66 36 69.6 39.6 69.6 44S66 52 61.6 52C38.4 52 20 70.4 20 93.6S38.4 135.2 61.6 135.2H63.6C68 135.2 71.6 138.8 71.6 143.2V147.6C71.6 178.8 96.8 204 128 204C134.8 204 140.8 202.8 146 200.8C159.2 196.4 170 186.8 177.2 174C178.4 171.6 180.8 170 183.2 170C197.2 168.4 210.4 161.6 220 151.6C230.4 140.4 236 126 236 111.2C236 78.4 209.2 52 176.4 52C172 52 168.4 48.4 168.4 44S172 36 176.4 36C218 36 252 69.6 252 111.2C252 130.4 244.8 148.4 232 162.4z" />
    <glyph glyph-name="cloud-network"
      unicode="&#xEA43;"
      horiz-adv-x="256" d="M219.6 89.6C206.8 89.6 195.6 81.2 192 69.6H188V95.2C209.6 103.2 224.8 124 224.8 148C224.8 162 219.6 176 209.6 186.4C201.6 195.2 190.4 201.2 178.8 203.6C172 213.6 162.4 221.2 151.2 225.2C146 227.2 139.6 228.4 133.2 228.4C104.8 228.4 81.2 206.8 78.4 179.2C57.6 175.6 41.2 157.6 41.2 135.6C41.2 117.6 52 102 68 95.2V69.6H64C60 81.2 49.2 89.6 36.4 89.6C20.4 89.6 7.2 76.8 7.2 60.8S20.4 32 36.4 32C49.2 32 60.4 40.4 64 52H74.8C81.2 52 86 57.2 86 63.2V92H118.8V83.6C107.2 80 98.4 68.8 98.4 56C98.4 40 111.6 27.2 127.6 27.2S156.8 40 156.8 56C156.8 68.8 148.4 79.6 136.4 83.6V92H169.6V63.2C169.6 56.8 174.8 52 181.2 52H192C196 40.4 206.8 32 219.6 32C235.6 32 248.8 44.8 248.8 60.8C249.2 76.8 236 89.6 219.6 89.6zM36.4 50C30.4 50 25.2 54.8 25.2 60.8C25.2 66.8 30.4 71.6 36.4 71.6S47.6 66.8 47.6 60.8C47.6 55.2 42.4 50 36.4 50zM128 45.6C122 45.6 116.8 50.4 116.8 56.4C116.8 62.4 122 67.2 128 67.2C134 67.2 139.2 62.4 139.2 56.4C139.2 50.4 134 45.6 128 45.6zM85.6 110C70.8 110 59.2 121.6 59.2 136S70.8 162 85.6 162H87.2C92 162 96.4 166 96.4 171.2V174.4C96.4 194.4 112.8 210.8 133.2 210.8C137.6 210.8 141.6 210 145.2 208.8C153.6 206 160.8 199.6 165.6 191.6C167.2 189.2 169.6 187.2 172.4 186.8C181.6 186 190.4 181.6 196.4 174.8C203.2 167.6 206.8 158.4 206.8 148.4C206.8 127.2 189.2 110 167.6 110H85.6zM219.6 50C213.6 50 208.4 54.8 208.4 60.8C208.4 66.8 213.6 71.6 219.6 71.6S230.8 66.8 230.8 60.8C231.2 55.2 226 50 219.6 50z" />
    <glyph glyph-name="cloud-download"
      unicode="&#xEA44;"
      horiz-adv-x="256" d="M142.8 117.2L136.8 111.2V138.4C136.8 143.2 132.8 147.6 127.6 147.6C122.8 147.6 118.4 143.6 118.4 138.4V111.2L112.8 117.2C109.2 120.8 103.6 120.8 100 117.6C96.4 114 96.4 108.4 99.6 104.8L118.8 85.2C121.2 82.8 124.4 81.6 127.6 81.6C130.8 81.6 134 82.8 136.4 85.2L155.6 104.8C159.2 108.4 158.8 114 155.2 117.6C152 120.8 146.4 120.8 142.8 117.2zM229.2 161.6C218.4 173.2 203.6 180.8 188 183.6C179.2 197.2 166.4 207.2 151.6 212.4C144.8 215.2 136.8 216.4 128.4 216.4C90.8 216.4 59.6 187.6 57.2 151.2C28.8 147.6 7.2 124 7.2 95.6C7.2 64.8 32.4 40 63.6 39.6H174.8C215.6 39.6 249.2 72 249.2 112C249.2 130.4 242.0000000000001 148 229.2 161.6zM174.8 57.6H64C42 57.6 25.2 74.4 25.2 95.6S42.4 133.6 64 133.6H66C70.8 133.6 75.2 137.6 75.2 142.8V146.8C75.2 175.6 99.2 198.8 128.4 198.8C134.8 198.8 140.4 198 145.6 196C158 192 168.4 183.2 174.8 171.6C176.4 169.2 178.8 167.2 181.6 167.2C194.8 166 207.6 159.6 216.4 150C226 139.6 231.2 126.4 231.2 112.8C231.2 82 205.6 57.6 174.8 57.6z" />
    <glyph glyph-name="cloud-check"
      unicode="&#xEA45;"
      horiz-adv-x="256" d="M156.4 148.4L121.2 115.2L111.2 125.2C107.6 128.8 102 128.8 98.4 125.2C94.8 121.6 94.8 116 98.4 112.4L112.8 98C114.8 96 117.6 94.8 120.8 94.8C123.2 94.8 126 95.6 128 97.2C128.4 97.2 128.4 97.6 128.8 97.6L168.8 135.2C172.4 138.8 172.4 144.4 169.2 148C165.6 152 160 152 156.4 148.4zM229.2 161.6C218.4 173.2 203.6 180.8 188 183.6C179.2 197.2 166.4 207.2 151.6 212.4C144.8 215.2 136.8 216.4 128.4 216.4C90.8 216.4 59.6 187.6 57.2 150.8C28.8 147.6 7.2 124 7.2 95.6C7.2 64.8 32.4 40 63.6 39.6H174.8C215.6 39.6 249.2 72 249.2 112C249.2 130.4 242.0000000000001 148 229.2 161.6zM174.8 57.6H64C42 57.6 25.2 74.4 25.2 95.6S42.4 133.6 64 133.6H66C70.8 133.6 75.2 137.6 75.2 142.8V146.8C75.2 175.6 99.2 198.8 128.4 198.8C134.8 198.8 140.4 198 145.6 196C158 192 168.4 183.2 174.8 171.6C176.4 169.2 178.8 167.2 181.6 167.2C194.8 166 207.6 159.6 216.4 150C226 139.6 231.2 126.4 231.2 112.8C231.2 82 205.6 57.6 174.8 57.6z" />
    <glyph glyph-name="camera"
      unicode="&#xEA46;"
      horiz-adv-x="256" d="M241.6 177.2C236.8 182 230.4 184.8 223.6 184.8H194.4V200.4C194.4 204.8 192.8 215.2 177.6 215.2H77.6C63.2 215.2 61.6 204.8 61.6 200.4V184.8H32.4C18.4 184.8 6.8 173.2 6.8 159.2V66.4C6.8 52.4 18.4 40.8 32.4 40.8H223.2C237.2 40.8 248.8 52.4 248.8 66.4V159.2C249.2 166 246.4 172.4 241.6 177.2zM230.8 66.4C230.8 62.4 227.6 58.8 223.2 58.8H32.4C28.4 58.8 24.8 62 24.8 66.4V159.2C24.8 163.2 28 166.8 32.4 166.8H66.4C73.6 166.8 79.6 172.8 79.6 180V197.2H176V180C176 172.8 182 166.8 189.2 166.8H223.6C225.6 166.8 227.6 166 228.8 164.4C230.4 162.8 230.8 161.2 230.8 159.2V66.4zM126.4 162C105.6 162 88.8 145.2 88.8 124C88.8 103.2 105.2 86.8 126.4 86.8C147.2 86.8 164 103.6 164 124C164 144.4 146.8 162 126.4 162zM126.4 104.8C115.2 104.8 106.8 113.2 106.8 124C106.8 134.8 115.6 144 126.4 144S146 134.8 146 124S137.2 104.8 126.4 104.8zM55.2 154.8H46C41.2 154.8 36.8 150.8 36.8 145.6S40.8 136.4 46 136.4H55.2C60 136.4 64.4 140.4 64.4 145.6S60.4 154.8 55.2 154.8z" />
    <glyph glyph-name="calendar"
      unicode="&#xEA47;"
      horiz-adv-x="256" d="M82 109.6H69.6C67.2 109.6 65.6 108 65.6 105.6V93.6C65.6 91.2 67.2 89.6 69.6 89.6H82C84.4 89.6 86 91.2 86 93.6V105.6C86 107.6 84 109.6 82 109.6zM134 109.6H121.6C119.2 109.6 117.6 108 117.6 105.6V93.6C117.6 91.2 119.2 89.6 121.6 89.6H134C136.4 89.6 138 91.2 138 93.6V105.6C138 107.6 136.4 109.6 134 109.6zM186.4 109.6H174C171.6 109.6 170 108 170 105.6V93.6C170 91.2 171.6 89.6 174 89.6H186.4C188.8 89.6 190.4 91.2 190.4 93.6V105.6C190.4 107.6 188.8 109.6 186.4 109.6zM82 58H69.6C67.2 58 65.6 56.4 65.6 54V42C65.6 39.6 67.2 38 69.6 38H82C84.4 38 86 39.6 86 42V54C86 56 84 58 82 58zM134 58H121.6C119.2 58 117.6 56.4 117.6 54V42C117.6 39.6 119.2 38 121.6 38H134C136.4 38 138 39.6 138 42V54C138 56 136.4 58 134 58zM186.4 58H174C171.6 58 170 56.4 170 54V42C170 39.6 171.6 38 174 38H186.4C188.8 38 190.4 39.6 190.4 42V54C190.4 56 188.8 58 186.4 58zM224 194.4H137.2V202C146.4 205.6 152.8 214.4 152.8 224.8C152.8 238.4 141.6 249.2 128 249.2S103.2 238.4 103.2 224.8C103.2 214.4 109.6 205.6 118.8 202V194.4H32C18.4 194.4 6.8 183.2 6.8 169.2V32C6.8 18.4 18 6.8 32 6.8H224C237.6 6.8 249.2 18 249.2 32V169.6C249.2 183.2 237.6 194.4 224 194.4zM128 231.2C131.6 231.2 134.8 228.4 134.8 224.8C134.8 221.2 132 218.4 128 218.4S121.2 221.2 121.2 224.8C121.2 228.4 124.4 231.2 128 231.2zM32 176.4H224C228 176.4 231.2 173.2 231.2 169.2V144.4H25.2V169.2C25.2 173.6 28 176.4 32 176.4zM224 24.8H32C28 24.8 24.8 28 24.8 32V126.8H230.8V32C231.2 28 228 24.8 224 24.8z" />
    <glyph glyph-name="bulb"
      unicode="&#xEA48;"
      horiz-adv-x="256" d="M220.8 156.4C220.8 207.6 179.2 248.8 128 248.8C76.8 248.8 35.2 207.6 35.2 156.4C35.2 122 54.4 90.4 84.4 74.4V31.6C84.4 18 95.2 7.2 108.8 7.2H146.8C160.4 7.2 171.2 18 171.2 31.6V74.4C201.6 90.4 220.8 122 220.8 156.4zM153.6 31.6C153.6 28 150.8 25.2 147.2 25.2H109.2C105.6 25.2 102.8 28 102.8 31.6V71.2H153.6V31.6zM160.4 88.8H138.4V118L161.2 135.6C165.2 138.8 166 144.4 162.8 148.4C159.6 152.4 154 153.2 150 150L138 140.8V160C138 164.8 134 169.2 128.8 169.2C124 169.2 119.6 165.2 119.6 160V139.6L104.4 150.4C100.4 153.2 94.8 152.4 92 148.4C89.2 144.4 90 138.8 94 136L119.6 118V89.2H94.8C69.2 101.6 52.4 128 52.4 156.4C52.4 197.6 86 231.2 127.2 231.2S202 197.6 202 156.4C202.8 127.6 186 101.2 160.4 88.8z" />
    <glyph glyph-name="bookmark"
      unicode="&#xEA49;"
      horiz-adv-x="256" d="M67.2 6.8C64.4 6.8 62 7.2 59.2 8.4C52.4 11.6 48 18.4 48 26V223.2C48 237.2 59.6 248.8 73.6 248.8H182.8C196.8 248.8 208.4 237.2 208.4 223.2V26.8C208.4 19.2 204 12.4 197.2 9.2C190.4 6 182.4 7.2 176.4 12.4L132.4 50.8C129.6 52.8 126.4 52.4 123.6 50.8L79.6 12C76 8.8 71.6 6.8 67.2 6.8zM73.2 230.8C68.8 230.8 65.6 227.2 65.6 223.2V26C65.6 25.6 65.6 25.2 66.4 24.8C67.2 24.4 67.6 24.8 67.6 24.8L112.4 64.4C121.6 71.6 134.4 71.6 143.6 64.4L144.4 63.6L188 25.2S188.4 24.8 189.2 25.2C190 25.6 190 26 190 26.4V223.2C190 227.6 186.4 230.8 182.4 230.8H73.2z" />
    <glyph glyph-name="bookmark-alt"
      unicode="&#xEA4A;"
      horiz-adv-x="256" d="M226 167.6H116.8V195.6C116.8 208.4 106.4 218.8 93.6 218.8H60.8C48 218.8 37.6 208.4 37.6 195.6V167.6H30C17.2 167.6 6.8 157.2 6.8 144.4V60.4C6.8 47.6 17.2 37.2 30 37.2H225.6C238.4 37.2 248.8 47.6 248.8 60.4V144.4C249.2 157.2 238.8 167.6 226 167.6zM55.6 195.2C55.6 198 58 200.4 60.8 200.4H93.6C96.4 200.4 98.8 198 98.8 195.2V136.4L87.6 145.2L86.8 145.6C81.2 149.6 73.6 149.6 68 145.6L56 136V195.2zM231.2 60.8C231.2 58 228.8 55.6 226 55.6H30C27.2 55.6 24.8 58 24.8 60.8V144.8C24.8 147.6 27.2 150 30 150H37.6V128.8C37.6 123.2 40.8 118.4 45.6 116C47.6 115.2 49.6 114.4 51.6 114.4C54.8 114.4 57.6 115.6 60.4 117.6L77.2 130.8L93.6 117.6C98 114.4 103.6 113.6 108.4 116S116.4 123.2 116.4 128.8V149.6H225.6C228.4 149.6 230.8 147.2 230.8 144.4V60.8z" />
    <glyph glyph-name="bluetooth"
      unicode="&#xEA4B;"
      horiz-adv-x="256" d="M195.2 88L135.2 128L195.2 168C201.6 172.4 205.6 179.6 205.6 187.2S201.6 202 195.2 206.4L136 246.4C131.2 249.6 125.2 250 120 247.2C114.8 244.4 111.6 239.2 111.6 233.2V144.4L64 176.4C60 179.2 54.4 178 51.6 174C48.8 170 50 164.4 54 161.6L103.6 128L54.8 95.2C50.8 92.4 49.6 86.8 52.4 82.8C54 80.4 56.8 78.8 60 78.8C61.6 78.8 63.6 79.2 64.8 80.4L111.6 112V22.8C111.6 16.8 114.8 11.6 120 8.8C122.4 7.6 124.8 6.8 127.2 6.8C130 6.8 133.2 7.6 135.6 9.6L195.2 49.2C201.6 53.6 205.6 60.8 205.6 68.4C205.6 76.4 202 83.6 195.2 88zM129.6 228.8L185.2 191.6C187.2 190.4 187.6 188 187.6 187.2C187.6 186.4 187.2 184.4 185.2 182.8L129.6 145.6V228.8zM185.2 64.4L129.6 27.2V110L185.2 72.8C187.2 71.6 187.6 69.2 187.6 68.4C187.6 67.6 187.6 65.6 185.2 64.4z" />
    <glyph glyph-name="ban"
      unicode="&#xEA4C;"
      horiz-adv-x="256" d="M128 248.8C61.2 248.8 7.2 194.8 7.2 128S61.2 6.8 128 6.8S249.2 61.2 249.2 128S194.8 248.8 128 248.8zM25.2 128C25.2 184.8 71.2 230.8 128 230.8C149.2 230.8 168.4 224.4 184.8 213.6L56.8 53.6C37.2 72.4 25.2 98.8 25.2 128zM128 24.8C106.8 24.8 87.2 31.2 70.8 42.4L198.8 202.4C218.4 183.6 230.8 157.2 230.8 128C231.2 71.2 184.8 24.8 128 24.8z" />
    <glyph glyph-name="archive"
      unicode="&#xEA4D;"
      horiz-adv-x="256" d="M226.8 238.8H29.2C16.8 238.8 6.8 228.8 6.8 216.4V192C6.8 180.4 15.6 170.8 27.2 170V41.6C27.2 28 38 17.2 51.6 17.2H204C217.6 17.2 228.4 28 228.4 41.6V170C239.6 170.8 248.8 180.4 248.8 192V216.4C249.2 228.8 239.2 238.8 226.8 238.8zM204 35.2H52C48.4 35.2 45.6 38 45.6 41.6V170H210.8V41.6C210.8 38 207.6 35.2 204 35.2zM231.2 192C231.2 189.6 229.2 187.6 226.8 187.6H29.2C26.8 187.6 24.8 189.6 24.8 192V216.4C24.8 218.8 26.8 220.8 29.2 220.8H226.8C229.2 220.8 231.2 218.8 231.2 216.4V192zM160.8 136.8H95.2C86 136.8 78 129.2 78 119.6V94.8C78 85.6 85.6 77.6 95.2 77.6H160.8C170 77.6 178 85.2 178 94.8V120C177.6 129.2 170 136.8 160.8 136.8zM159.6 96.4H96.4V119.2H160V96.4z" />
    <glyph glyph-name="alarm"
      unicode="&#xEA4E;"
      horiz-adv-x="256" d="M230.4 43.6L222.4 56C220.8 58.4 220 60.8 220 63.6V146.8C220 170.4 210 192.4 191.6 208.8C176.8 222 157.6 230.4 137.2 232V240C137.2 244.8 133.2 249.2 128 249.2C123.2 249.2 118.8 245.2 118.8 240V232.4C118 232.4 117.2 232.4 116.4 232C70 226.8 35.2 189.6 35.2 145.2V63.6C34.8 59.6 34 57.6 33.2 56.4L25.6 43.6C23.2 39.6 23.2 34.8 25.6 30.8C28 27.2 32 24.8 36.4 24.8H119.2V16C119.2 11.2 123.2 6.8 128.4 6.8C133.2 6.8 137.6 10.8 137.6 16V24.8H220C224.4 24.8 228.4 27.2 230.8 30.8C233.2 34.8 233.2 39.6 230.4 43.6zM46 42.8L48.8 47.6C51.2 51.6 52.4 56.4 53.2 62V145.2C53.2 180.4 81.2 210 118.4 214C141.2 216.4 163.6 209.6 180 195.2C194.4 182.4 202.4 165.2 202.4 146.8V63.6C202.4 57.6 204 52 207.6 46.4L210 42.8H46z" />
    <glyph glyph-name="alarm-clock"
      unicode="&#xEA4F;"
      horiz-adv-x="256" d="M173.6 116.8H137.2V154C137.2 158.8 133.2 163.2 128 163.2C123.2 163.2 118.8 159.2 118.8 154V116.8H117.6C112.8 116.8 108.4 112.8 108.4 107.6S112.4 98.4 117.6 98.4H118.8V97.2000000000001C118.8 92.4 122.8 88.0000000000001 128 88.0000000000001C132.8 88.0000000000001 137.2 92.0000000000001 137.2 97.2000000000001V98.4H173.6C178.4 98.4 182.8 102.4 182.8 107.6S178.4 116.8 173.6 116.8zM238 179.6C238 201.6 220.4 219.2 198.4 219.2C188 219.2 178.4 215.2 171.2 208.4C160.4 213.2 149.2 216.4 136.8 217.2V230.8H148C152.8 230.8 157.2 234.8 157.2 240S153.2 249.2 148 249.2H107.6C102.8 249.2 98.4 245.2 98.4 240S102.4 230.8 107.6 230.8H118.8V216.8C106.8 215.6 95.2 212.8 84.4 208C77.2 214.8 67.6 218.8 57.2 218.8C35.2 218.8 17.6 201.2 17.6 179.2C17.6 168.4 22 158 30 150.8C25.2 138.8 22.4 125.6 22.4 112C22.4 54 69.6 6.8 127.6 6.8S232.8 54 232.8 112C232.8 125.6 230 138.8 225.2 150.8C233.6 158.4 238.0000000000001 168.8 238.0000000000001 179.6zM198.4 201.2A21.512 21.512 0 0 0 216.8 168.4C209.2 180.4 199.6 190.4 188 198.4C191.2 200.4 194.8 201.2 198.4 201.2zM36 179.6C36 191.6 45.6 201.2 57.6 201.2C61.2 201.2 64.8 200.4 68 198.4C56.4 190.4 46.8 180 39.2 168.4C37.2 172 36 175.6 36 179.6zM128 24.8C80 24.8 40.8 64 40.8 112S80 199.2 128 199.2S215.2 160 215.2 112S176 24.8 128 24.8z" />
    <glyph glyph-name="add-files"
      unicode="&#xEA50;"
      horiz-adv-x="256" d="M154.4 167.6H137.2V184.8C137.2 189.6 133.2 194 128 194C123.2 194 118.8 190 118.8 184.8V167.6H101.6C96.8 167.6 92.4 163.6 92.4 158.4S96.4 149.2 101.6 149.2H118.8V132C118.8 127.2 122.8 122.8 128 122.8C132.8000000000001 122.8 137.2 126.8 137.2 132V149.2H154.4C159.2 149.2 163.6 153.2 163.6 158.4S159.2 167.6 154.4 167.6zM200 248.8H56C42.4 248.8 31.6 238 31.6 224.4V96C31.6 90 34 84.4 38.4 80.4L110.4 12.4C114.4 8.4 119.6 6.4 125.2 6.4H200C213.6 6.4 224.4 17.2 224.4 30.8V224.4C224.4 238 213.6 248.8 200 248.8zM62.8 82.4H109.6C111.6 82.4 113.2 80.8 113.2 79.2V35.2L62.8 82.4zM206.4 31.6C206.4 28 203.6 25.2 200 25.2H131.2V79.2C131.2 90.8 121.6 100.4 109.6 100.4H49.6V224.4C49.6 228 52.4 230.8 56 230.8H200C203.6 230.8 206.4 228 206.4 224.4V31.6z" />
    <glyph glyph-name="thunder"
      unicode="&#xEA51;"
      horiz-adv-x="256" d="M229.2 177.6C218.4 189.2 203.6 197.2 188 200C179.2 214 166.4 224.4 151.6 229.6C144.8 232.4 136.8 233.6 128.4 233.6C90.4 233.6 59.6 204 57.2 166.8C29.2 163.2 7.2 139.6 7.2 110.4C7.2 78.8 32 53.6 64 53.6C68.8 53.6 72.8 57.6 73.2 62.4C73.2 67.2 69.2 71.6 64.4 71.6C42.8 71.6 25.6 88.8 25.6 110.4C25.6 132 42.8 149.2 64.4 149.2H66.4C71.2 149.2 75.6 153.2 75.6 158.4V162.4C75.6 191.6 99.6 215.6 128.8 215.6C135.2 215.6 140.8 214.8 146 212.8C158.4 208.4 168.8 199.6 175.2 187.6C176.8 184.8 179.2 183.2 182 182.8C195.2 181.6 207.6 175.2 216.8 165.6C226.4 155.2 232 141.6 232 127.6C232 104.4 217.2 83.2 195.2 75.2C190.4 73.6 188 68.4 190 63.6C191.6 58.8 196.8 56.4 201.6 58.4C230.8 68.8 250 96.8 250 127.6C249.2 145.6 242 163.6 229.2 177.6zM195.6 126.8C193.2 132 188.4 134.8 182.8 134.8H170L171.6 137.6C174.8 143.6 174.8 151.2 171.2 157.2C167.6 163.2 161.2 166.8 154.4 166.8H123.6C116 166.8 108.8 162.4 105.6 155.2L83.2 105.2C81.2 100.8 81.6 95.6 84.4 91.6S91.6 85.2 96.4 85.2H114.4L101.2 41.2C99.2 34.4 102 27.6 108.4 24.4C110.4 23.2 112.8 22.8 115.2 22.8C119.2 22.8 123.6 24.8 126.4 28L194.4 111.6C197.2 116 198 121.6 195.6 126.8zM123.6 54L134.8 91.6C135.6 94.4 135.2 97.2 133.6 99.6C132 102 129.2 103.2 126.4 103.2H102L122 148C122.4 148.8 122.8 148.8 123.6 148.8H154.4C155.2 148.8 155.6 148.4 156 148S156.4 146.8 156 146.4L147.2 130.4C145.6 127.6 145.6 124.4 147.2 121.6C148.8 118.8 151.6 117.2 154.8 117.2H174.8L123.6 54z" />
    <glyph glyph-name="thunder-alt"
      unicode="&#xEA52;"
      horiz-adv-x="256" d="M229.2 162C218.4 173.6 203.6 181.6 188 184.4C179.2 198.4 166.4 208.8 151.6 214C144.8 216.8 136.8 218 128.4 218C90.4 218 59.6 188.4 57.2 151.2C29.2 147.6 7.2 123.6 7.2 94.8C7.2 63.2 32 38 64 38H175.2C216 38 249.6 71.2 249.6 112C249.2 130.4 242 148.4 229.2 162zM174.8 56H63.6C42 56 24.8 73.2 24.8 94.8C24.8 116.4 42 133.6 63.6 133.6H65.6C70.4 133.6 74.8 137.6 74.8 142.8V146.8C74.8 176 98.8 200 128 200C134.4 200 140 199.2 145.2 197.2C157.6 192.8 168 184 174.4 172C176 169.2 178.4 167.6 181.2 167.2C194.4 166 206.8 159.6 216 150C225.6 139.6 231.2 126 231.2 112C231.2 80.8 205.6 56 174.8 56zM146.8 130.4H131.2L150.4 155.2C153.6 159.2 152.8 164.8 148.8 168C144.8 171.2 139.2 170.4 136 166.4L107.2 129.2C104.8 126 104.4 122 106 118.4C107.6 114.8 111.2 112.8 115.2 112.8H130L109.6 88.4C106.4 84.4 106.8 78.8 110.8 75.6C112.4 74 114.4 73.6 116.4 73.6C118.8 73.6 121.6 74.8 123.2 76.8L154.4 114C156.8 117.2 157.6 121.2 156 125.2C154.4 128 150.8 130.4 146.8 130.4z" />
    <glyph glyph-name="sun"
      unicode="&#xEA53;"
      horiz-adv-x="256" d="M128 182.4C98 182.4 73.6 158 73.6 128S98 73.6 128 73.6S182.4 98 182.4 128S158 182.4 128 182.4zM128 91.6C108 91.6 91.6 108 91.6 128S108 164.4 128 164.4S164.4 148 164.4 128S148 91.6 128 91.6zM128 210.8C132.8 210.8 137.2 214.8 137.2 220V240C137.2 244.8 133.2 249.2 128 249.2C123.2 249.2 118.8 245.2 118.8 240V219.6C119.2 214.8 123.2 210.8 128 210.8zM128 45.2C123.2 45.2 118.8 41.2 118.8 36V16C118.8 11.2 122.8 6.8 128 6.8C132.8 6.8 137.2 10.8 137.2 16V36.4C137.2 41.2 132.8 45.2 128 45.2zM193.2 184C195.6 184 198 184.8 199.6 186.8L212.4 199.6C216 203.2 216 208.8 212.4 212.4C208.8 216 203.2 216 199.6 212.4L186.8 199.6C183.2 196 183.2 190.4 186.8 186.8C188.4 184.8 190.8 184 193.2 184zM56.8 69.2L44 56.8C40.4 53.2 40.4 47.6 44 44C45.6 42.4 48 41.2 50.4 41.2S55.2 42 56.8 44L69.6 56.8C73.2 60.4 73.2 66 69.6 69.6C66 72.8 60 72.8 56.8 69.2zM240 136.8H219.6C214.8 136.8 210.4 132.8 210.4 127.6C210.4 122.8 214.4 118.4 219.6 118.4H240C244.8 118.4 249.2 122.4 249.2 127.6C249.2 132.8 244.8 136.8 240 136.8zM45.2 128C45.2 132.8 41.2 137.2 36 137.2H16C11.2 137.2 6.8 133.2 6.8 128C6.8 123.2 10.8 118.8 16 118.8H36.4C41.2 118.8 45.2 123.2 45.2 128zM199.2 69.2C195.6 72.8 190 72.8 186.4 69.2C182.8 65.6 182.8 60 186.4 56.4L199.2 43.6C200.8 42 203.2 40.8 205.6 40.8S210.4 41.6 212 43.6C215.6 47.2 215.6 52.8 212 56.4L199.2 69.2zM56.8 212C53.2 215.6 47.6 215.6 44 212C40.4 208.4 40.4 202.8 44 199.2L56.8 186.4C58.4 184.8 60.8 183.6 63.2 183.6C65.6 183.6 68 184.4 69.6 186.4C73.2 190 73.2 195.6 69.6 199.2L56.8 212z" />
    <glyph glyph-name="rain"
      unicode="&#xEA54;"
      horiz-adv-x="256" d="M229.2 181.6C218.4 193.2 203.6 201.2 188 204C179.2 218 166.4 228.4 151.6 233.6C144.8 236.4 136.8 237.6 128.4 237.6C90.4 237.6 59.6 208 57.2 170.8C29.2 167.2 7.2 143.6 7.2 114.4C7.2 94 17.6 75.6 35.2 65.2C36.4 64.4 38 64 39.6 64C42.8 64 45.6 65.6 47.2 68.4C49.6 72.8 48.4 78.4 44 80.8C32 87.6 24.8 100.4 24.8 114.4C24.8 136 42 153.2 63.6 153.2H65.6C70.4 153.2 74.8 157.2 74.8 162.4V166.4C74.8 195.6 98.8 219.6 128 219.6C134.4 219.6 140 218.8 145.2 216.8C157.6 212.4 168 203.6 174.4 191.6C176 188.8 178.4 187.2 181.2 186.8C194.4 185.6 206.8 179.2 216 169.6C225.6 159.2 231.2 145.6 231.2 131.6C231.2 112 221.2 94.4 204.8 84C200.4 81.2 199.2 76 202 71.6S210 66 214.4 68.8C236.4 82.4 249.2 106 249.2 131.6C249.2 150 242 168 229.2 181.6zM88 95.2C83.2 95.2 78.8 91.2 78.8 86V27.2C78.8 22.4 82.8 18 88 18S97.2 22 97.2 27.2V86C96.8 91.2 92.8 95.2 88 95.2zM128 114.8C123.2 114.8 118.8 110.8 118.8 105.6V46.8C118.8 42 122.8 37.6 128 37.6C132.8 37.6 137.2 41.6 137.2 46.8V105.6C137.2 110.8 132.8 114.8 128 114.8zM168 95.2C163.2 95.2 158.8 91.2 158.8 86V27.2C158.8 22.4 162.8 18 168 18S177.2 22 177.2 27.2V86C177.2 91.2 173.2 95.2 168 95.2z" />
    <glyph glyph-name="night"
      unicode="&#xEA55;"
      horiz-adv-x="256" d="M142 240C135.2 242 128.4 243.6 121.2 244.8C116 245.6 110.4 242.8 108.4 238C106 233.2 107.2 227.2 111.2 224C139.6 197.6 150 158.8 138.4 122.4C125.6 82 88 53.6 44.4 52.4C38.8 52.4 34.4 48.8 32.8 43.6C31.2 38.4 33.6 32.8 38 30C48 24 58 19.2 68 16C79.6 12.4 91.6 10.8 103.6 10.8C124 10.8 144 16 162 26C190.4 41.6 210.4 66.8 219.2 97.2C236.4 157.2 202.4 220 142 240zM202 102.4C194.8 76.4 177.2 55.2 153.6 42C128.8 28.4 100.4 25.6 73.6 33.6C70.8 34.4 67.6 35.6 64.8 36.8C107.2 45.2 142.4 75.6 155.6 117.2C167.2 154 160 192.8 136.4 223.2C187.6 206 216.4 152.8 202 102.4z" />
    <glyph glyph-name="drop"
      unicode="&#xEA56;"
      horiz-adv-x="256" d="M128 6.8C73.2 6.8 28.8 51.2 28.8 106C28.8 178.8 118.8 244.4 122.4 247.2C125.6 249.6 130 249.6 133.2 247.2C137.2 244.4 226.8 175.2 226.8 106C227.2 51.6 182.8 6.8 128 6.8zM128 228.4C109.2 213.6 47.2 160 47.2 106C47.2 61.2 83.6 24.8 128.4 24.8S209.6 61.2 209.6 106C209.2 157.6 146.8 212.8 128 228.4z" />
    <glyph glyph-name="cloudy-sun"
      unicode="&#xEA57;"
      horiz-adv-x="256" d="M157.6 201.6C162.4 201.6 166.8 205.6 166.8 210.8V226.8C166.8 231.6 162.8 236 157.6 236S148.4 232 148.4 226.8V210.4C148.4 205.6 152.8 201.6 157.6 201.6zM221.2 208.8C217.6 212.4 212 212.4 208.4 208.8L198 198.4C194.4 194.8 194.4 189.2 198 185.6C199.6 184 202 182.8 204.4 182.8C206.8 182.8 208.8 183.6 210.8 185.2L221.2 195.6C224.8 199.6 224.8 205.2 221.2 208.8zM240 149.2H223.6C218.8 149.2 214.4 145.2 214.4 140S218.4 130.8 223.6 130.8H240C244.8 130.8 249.2 134.8 249.2 140S244.8 149.2 240 149.2zM101.2 184.4C102.8 182.8 105.2 182 107.6 182C110 182 112.4 182.8 114 184.8C117.6 188.4 117.6 194 114 197.6L102.4 209.2C98.8 212.8 93.2 212.8 89.6 209.2C86 205.6 86 200 89.6 196.4L101.2 184.4zM197.6 143.2C197.6 167.6 177.6 187.6 153.2 187.6C134 187.6 117.2 174.8 111.2 157.2C108.4 157.6 105.6 158 102.8 158C73.2 158 48.8 136.4 46 108.4C24 104.8 7.2 86.4 7.2 64.4C7.2 40 27.6 20.4 52.8 20H138.8C171.6 20 198.4 45.6 198.4 76.8C198.4 89.6 193.6 101.9999999999999 185.2 112.4C192.8 120.8 197.6 131.6 197.6 143.1999999999999zM153.2 169.2C167.6 169.2 179.6 157.6 179.6 142.8C179.6 135.6 176.8 129.2 172 124.4C165.6 128.4 158 131.2 150.4 132.8C144.8 140.8 137.2 147.2 128.8 151.6C132 162 142 169.2 153.2 169.2zM138.8 38.4H53.2C37.6 38.4 25.2 50 25.2 64.8S37.6 91.2 53.2 91.2H54.8C59.6 91.2 64 95.2 64 100.4V103.6C64 124 81.6 140.4 103.2 140.4C108 140.4 112 139.6 116 138.4C125.2 135.6 132.8 129.2 137.6 120.8C139.2 118.4 141.6 116.8 144.4 116.4C154.4 115.2 163.6 110.8 170 103.9999999999999C177.2 96.4 180.8 87.5999999999999 180.8 77.5999999999999C180.4 55.5999999999999 161.6 38.3999999999999 138.8 38.3999999999999z" />
    <glyph glyph-name="cloud"
      unicode="&#xEA58;"
      horiz-adv-x="256" d="M174.8 39.6H63.6C32.4 39.6 7.2 64.8 7.2 95.6C7.2 124 29.2 147.6 57.2 151.2C59.2 187.6 90.4 216.4 128 216.4C136.4 216.4 144.4 215.2 151.2 212.4C166 207.2 178.8 197.2 187.6 183.6C203.6 180.8 218.4 173.2 228.8 161.6C241.6 148 248.4 130.4 248.4 112C249.2 72 215.6 39.6 174.8 39.6zM64 57.6H174.8C206 57.6 231.2 82 231.2 112.4C231.2 126 226.0000000000001 139.2 216.4 149.6C207.6 159.2 194.8 165.2 181.6 166.8C178.8 167.2 176 168.8 174.8 171.2C168.4 182.8 158 191.6 145.6 195.6C140.4 197.6 134.8 198.4 128.4 198.4C99.2 198.4 75.2 175.2 75.2 146.4V142.4C75.2 137.6 71.2 133.2 66 133.2H64C42 133.2 25.2 116.4 25.2 95.2S42 57.6 64 57.6z" />
    </font>
</defs>
</svg>
